Filmbol Forum Film İndir 1080P v Hababam Sınıfı Yaz Oyunları - 2021 - TR+ORG - 1080P | tt10593750
Bildirimi Kapat
Server kaynaklı problemden dolayı ciddi bir sorun yaşadık. Şuanda forum ve portal aktif halde ancak bazı problemler hala devam ediyor. Problem gördüğünüz yerleri bize bildirmeniz çok önemli. Teşekkürler.

Bildirimi Kapat
Merhaba , site giderlerini bir nebze olsun karşılamak adına link kısaltma servisleri kullanmaya başladık. İndirme linkleri sizi ouo.io adresinde yönlendirecek, 3 saniye geçtikten sonra Get Link butonuna tıklayarak linke ulaşacaksınız. Premium üyeler bu durumdan etkilenmeyecektir.


Premium Üyelik Al

Hababam Sınıfı Yaz Oyunları - 2021 - TR+ORG - 1080P | tt10593750
BroserBros
Hababam Sınıfı Yaz Oyunları - 2021 - TR+ORG - 1080P | tt10593750
5
103
  • Derecelendirme: 0/5 - 0 oy
  • 1
  • 2
  • 3
  • 4
  • 5
Konuyu Okuyanlar:1 Ziyaretçi
Şuan Online!
Filmin Yayınlanma Tarihi: 2021 
Şuan Online!
BroserBros Kurucu Admin
*******
Admin


 Hababam Sınıfı Yaz Oyunları



Hababam Sınıfı filmleri her zaman ilgimizi çekmeyi başarmış, kaliteli yapımlar sunan ve bizi her zaman güldürebilen yapıtlardı. 2021 yapımı olan Hababam Sınıfı filmi ise tabii ki eski kadro ile pek alakalı değil. Bir lisede yeni bir organizasyon çalışmaları başlamış, bu organizasyona göre ise okulun en başarılı öğrencilerinden bir ekip toplanarak, Kıbrıs da düzenlenecek olan bir yarışmaya katılacaklardır. Fakat işler beklenildiği gibi gitmez ve en iyi öğrencileri götürelim derken en haylazları bu işe dahil olur.

Toplamda 4 kişinin katılabileceği yarışmada, okulun haylazları buradaki diğer öğrencileri tehdit eder ve Kıbrıs'a kendilerinin gitmek istediğini söylerler. Bu durumda elinden bir şey gelmeyen okul yönetimi bu 4 kişiyi götürmek zorunda kalır. Bu haylazların tek beklentisi Kıbrıs'a gidip güzel bir tatil yapmaktır. Fakat oraya vardıklarında rakip öğrenciler onlarla dalga geçmeye başlamış ve bunun sonucunda bu haylazlar kendilerine çekidüzen vererek bir hedef belirleyeceklerdir.

2021 yapımı bu filmin oyuncu kadrosunda Altan Erkekli, Toygan Avanoğlu ve Fırat Çim gibi isimler yer alırken, yönetmen koltuğuna ise Doğa Can Anafarta oturuyor...

Hababam Sınıfı Yaz Oyunları (2021) | tt10593750 Filmi Imdb'den 1,000 kişi tarafından oylandı ve 3,1 puan aldı. Bu film için editör puanı %53 olarak belirlendi. İyi Seyirler!

Teknik Detaylar

Kod :
General
Unique ID                                : 51572687880947174079014351840709215887 (0x26CC89D3F16FFD81AE3AF16C1AF4868F)
Complete name                            : C:\Users\Administrator\Desktop\1\Hababam.Sınıfı.Yaz.Oyunları.2021.1080p.BluRay.x264.Yerli.Filmbol.mkv
Format                                   : Matroska
Format version                           : Version 4
File size                                : 4.00 GiB
Duration                                 : 1 h 42 min
Overall bit rate                         : 5 572 kb/s
Movie name                               : Hababam Sınıfı Yaz Oyunları - 2021 | [FilmboL]
Encoded date                             : UTC 2021-09-19 06:40:26
Writing application                      : mkvmerge v61.0.0 ('So') 64-bit
Writing library                          : libebml v1.4.2 + libmatroska v1.6.4

Video
ID                                       : 1
Format                                   : AVC
Format/Info                              : Advanced Video Codec
Format profile                           : [email protected]
Format settings                          : CABAC / 4 Ref Frames
Format settings, CABAC                   : Yes
Format settings, Reference frames        : 4 frames
Codec ID                                 : V_MPEG4/ISO/AVC
Duration                                 : 1 h 42 min
Bit rate                                 : 5 186 kb/s
Width                                    : 1 916 pixels
Height                                   : 1 076 pixels
Display aspect ratio                     : 16:9
Frame rate mode                          : Constant
Frame rate                               : 24.000 FPS
Color space                              : YUV
Chroma subsampling                       : 4:2:0
Bit depth                                : 8 bits
Scan type                                : Progressive
Bits/(Pixel*Frame)                       : 0.105
Stream size                              : 3.72 GiB (93%)
Title                                    : Hababam Sınıfı Yaz Oyunları - 2021 | [FilmboL]
Default                                  : Yes
Forced                                   : No
Color range                              : Limited
Color primaries                          : BT.709
Transfer characteristics                 : BT.709
Matrix coefficients                      : BT.709

Audio
ID                                       : 2
Format                                   : AC-3
Format/Info                              : Audio Coding 3
Commercial name                          : Dolby Digital
Codec ID                                 : A_AC3
Duration                                 : 1 h 42 min
Bit rate mode                            : Constant
Bit rate                                 : 384 kb/s
Channel(s)                               : 6 channels
Channel layout                           : L R C LFE Ls Rs
Sampling rate                            : 48.0 kHz
Frame rate                               : 31.250 FPS (1536 SPF)
Compression mode                         : Lossy
Stream size                              : 282 MiB (7%)
Title                                    : Hababam Sınıfı Yaz Oyunları - 2021 | [FilmboL]
Language                                 : Turkish
Service kind                             : Complete Main
Default                                  : Yes
Forced                                   : No

Film Detayları


 Hababam Sınıfı Yaz Oyunları

 Hababam Sınıfı Yaz Oyunları

 Hababam Sınıfı Yaz Oyunları


Film Fragmanı


Film İndir



Zip Şifresi: filmbol.org Aşağıdaki butona tıklayarak kopyalabilirsiniz.


Uptobox ile indir

1Fichier ile indir

1Fichier'den İndiremiyor musun? Tıklayın!






Filmbol Cloud

Bunun için üzgünüz ancak, bu linke sadece premium üyeler erişebilir.




WWW
Şuan Offine!
Şuan Offine!
mesuter16 Yeni Üye
*
Üye
  • Konular0
  • Mesajlar12
  • Rep puanı 0
Teşekkürler.
Şuan Offine!
Şuan Offine!
utqdmn Yeni Üye
*
Üye
  • Konular0
  • Mesajlar15
  • Rep puanı 0
Teşekkürler.
Şuan Offine!
Şuan Offine!
neobre Yeni Üye
*
Üye
  • Konular0
  • Mesajlar117
  • Rep puanı 0
Teşekkürler.
Şuan Offine!
Şuan Offine!
xplood67 Yeni Üye
*
Üye
  • Konular0
  • Mesajlar40
  • Rep puanı 0
Teşekkürler.
Şuan Online!
Şuan Online!
ceLlatiZm Yeni Üye
*
Üye
  • Konular0
  • Mesajlar14
  • Rep puanı 0
Teşekkürler.


Hızlı Menü: