Filmbol Forum Film İndir BRRip XviD v Hababam Sınıfı Yaz Oyunları - 2021 - TR - BRRip XviD | tt10593750
Bildirimi Kapat
Server kaynaklı problemden dolayı ciddi bir sorun yaşadık. Şuanda forum ve portal aktif halde ancak bazı problemler hala devam ediyor. Problem gördüğünüz yerleri bize bildirmeniz çok önemli. Teşekkürler.

Bildirimi Kapat
Merhaba , site giderlerini bir nebze olsun karşılamak adına link kısaltma servisleri kullanmaya başladık. İndirme linkleri sizi ouo.io adresinde yönlendirecek, 3 saniye geçtikten sonra Get Link butonuna tıklayarak linke ulaşacaksınız. Premium üyeler bu durumdan etkilenmeyecektir.


Premium Üyelik Al

Hababam Sınıfı Yaz Oyunları - 2021 - TR - BRRip XviD | tt10593750
BroserBros
Hababam Sınıfı Yaz Oyunları - 2021 - TR - BRRip XviD | tt10593750
3
94
  • Derecelendirme: 0/5 - 0 oy
  • 1
  • 2
  • 3
  • 4
  • 5
Konuyu Okuyanlar:2 Ziyaretçi
Şuan Online!
Filmin Yayınlanma Tarihi: 2021 
Şuan Online!
BroserBros Kurucu Admin
*******
Admin


 Hababam Sınıfı Yaz Oyunları



Hababam Sınıfı filmleri her zaman ilgimizi çekmeyi başarmış, kaliteli yapımlar sunan ve bizi her zaman güldürebilen yapıtlardı. 2021 yapımı olan Hababam Sınıfı filmi ise tabii ki eski kadro ile pek alakalı değil. Bir lisede yeni bir organizasyon çalışmaları başlamış, bu organizasyona göre ise okulun en başarılı öğrencilerinden bir ekip toplanarak, Kıbrıs da düzenlenecek olan bir yarışmaya katılacaklardır. Fakat işler beklenildiği gibi gitmez ve en iyi öğrencileri götürelim derken en haylazları bu işe dahil olur.

Toplamda 4 kişinin katılabileceği yarışmada, okulun haylazları buradaki diğer öğrencileri tehdit eder ve Kıbrıs'a kendilerinin gitmek istediğini söylerler. Bu durumda elinden bir şey gelmeyen okul yönetimi bu 4 kişiyi götürmek zorunda kalır. Bu haylazların tek beklentisi Kıbrıs'a gidip güzel bir tatil yapmaktır. Fakat oraya vardıklarında rakip öğrenciler onlarla dalga geçmeye başlamış ve bunun sonucunda bu haylazlar kendilerine çekidüzen vererek bir hedef belirleyeceklerdir.

2021 yapımı bu filmin oyuncu kadrosunda Altan Erkekli, Toygan Avanoğlu ve Fırat Çim gibi isimler yer alırken, yönetmen koltuğuna ise Doğa Can Anafarta oturuyor...

Hababam Sınıfı Yaz Oyunları (2021) | tt10593750 Filmi Imdb'den 1,000 kişi tarafından oylandı ve 3,1 puan aldı. Bu film için editör puanı %53 olarak belirlendi. İyi Seyirler!

Teknik Detaylar

Kod :
General
Complete name                            : C:\Users\Administrator\Desktop\1\Hababam.Sınıfı.Yaz.Oyunları.2021.BRRip.XviD.Yerli.Filmbol.avi
Format                                   : AVI
Format/Info                              : Audio Video Interleave
File size                                : 996 MiB
Duration                                 : 1 h 42 min
Overall bit rate                         : 1 355 kb/s

Video
ID                                       : 0
Format                                   : MPEG-4 Visual
Format profile                           : Advanced [email protected]
Format settings                          : BVOP2
Format settings, BVOP                    : 2
Format settings, QPel                    : No
Format settings, GMC                     : No warppoints
Format settings, Matrix                  : Default (H.263)
Codec ID                                 : XVID
Codec ID/Hint                            : XviD
Duration                                 : 1 h 42 min
Bit rate                                 : 1 214 kb/s
Width                                    : 570 pixels
Height                                   : 320 pixels
Display aspect ratio                     : 16:9
Frame rate                               : 24.000 FPS
Color space                              : YUV
Chroma subsampling                       : 4:2:0
Bit depth                                : 8 bits
Scan type                                : Progressive
Compression mode                         : Lossy
Bits/(Pixel*Frame)                       : 0.277
Stream size                              : 892 MiB (90%)
Writing library                          : XviD 67

Audio
ID                                       : 1
Format                                   : MPEG Audio
Format version                           : Version 1
Format profile                           : Layer 3
Codec ID                                 : 55
Codec ID/Hint                            : MP3
Duration                                 : 1 h 42 min
Bit rate mode                            : Constant
Bit rate                                 : 128 kb/s
Channel(s)                               : 2 channels
Sampling rate                            : 48.0 kHz
Compression mode                         : Lossy
Stream size                              : 94.1 MiB (9%)
Alignment                                : Aligned on interleaves
Interleave, duration                     : 24  ms (0.58 video frame)

Film Detayları


 Hababam Sınıfı Yaz Oyunları

 Hababam Sınıfı Yaz Oyunları

 Hababam Sınıfı Yaz Oyunları


Film Fragmanı


Film İndir



Zip Şifresi: filmbol.org Aşağıdaki butona tıklayarak kopyalabilirsiniz.



Uptobox ile indir

1Fichier ile indir

1Fichier'den İndiremiyor musun? Tıklayın!






Filmbol Cloud

Bunun için üzgünüz ancak, bu linke sadece premium üyeler erişebilir.




WWW
Şuan Online!
Şuan Online!
ceLlatiZm Yeni Üye
*
Üye
  • Konular0
  • Mesajlar14
  • Rep puanı 0
Teşekkürler.
Şuan Offine!
Şuan Offine!
KeremSGLK Yeni Üye
*
Üye
  • Konular0
  • Mesajlar1
  • Rep puanı 0
Teşekkürler.
Şuan Offine!
Şuan Offine!
ragman Yeni Üye
*
Üye
  • Konular0
  • Mesajlar3
  • Rep puanı 0
Teşekkürler


Hızlı Menü: