Filmbol Forum Film İndir 1080P v Komiser Grom: Veba Doktoru (Mayor Grom: Chumnoy Doktor) - 2021 - TR+ORG - 1080P | tt7601480
Bildirimi Kapat
Merhaba , site giderlerini bir nebze olsun karşılamak adına link kısaltma servisleri kullanmaya başladık. İndirme linkleri sizi ouo.io adresinde yönlendirecek, 3 saniye geçtikten sonra Get Link butonuna tıklayarak linke ulaşacaksınız. Premium üyeler bu durumdan etkilenmeyecektir.


Premium Üyelik Al

Komiser Grom: Veba Doktoru (Mayor Grom: Chumnoy Doktor) - 2021 - TR+ORG - 1080P | tt7601480
TheSteeL
Komiser Grom: Veba Doktoru (Mayor Grom: Chumnoy Doktor) - 2021 - TR+ORG - 1080P | tt7601480
2
318
  • Derecelendirme: 0/5 - 0 oy
  • 1
  • 2
  • 3
  • 4
  • 5
Konuyu Okuyanlar:2 Ziyaretçi
Şuan Online!
Filmin Yayınlanma Tarihi: 2021 
Şuan Online!
TheSteeL Chief Executive Officer
******
CEO


 Komiser Grom: Veba Doktoru



Igor diğer polislerin aksine, kendine dişli rakipler seçmeyi çok sever. Öyle ki bu yüzden kimsenin göz göze gelemeyeceği adamları alt etmeye başlar. Fakat şehir halkı asla mutlu değildir. Şehirde sürekli olarak yaşanan yolsuzluk iddiaları ve zengin suçluların hiç bir ceza almadan yargılaması ve serbest bırakılması, şehirde isyan tetikler. Bu isyandan fayda sağlayacak olan ve kendine Veba ismini koyan bu adam, şehirdeki zenginlerin işini bitirmeye başlar. İnsanın içine korku salan bu adamı yakalayabilecek tek kişi ise Igor'dur...

Komiser Grom: Veba Doktoru (2021) | tt7601480 Filmi Imdb'den 5500 kişi tarafından oylandı ve 6,4 puan aldı. Bu film için editör puanı %72 olarak belirlendi. İyi Seyirler!

Teknik Detaylar

Kod :
General
Unique ID                                : 211831022097190025670929685937762418360 (0x9F5D2BBD87179626E23ACC2B04593EB8)
Complete name                            : /home/TheSteel/Desktop/3/Komiser.Grom.Veba.Doktoru.2021.1080p.WEB-DL.x264.TR.RUS.Filmbol.mkv
Format                                   : Matroska
Format version                           : Version 4
File size                                : 2.84 GiB
Duration                                 : 2 h 18 min
Overall bit rate                         : 2 944 kb/s
Movie name                               : Komiser Grom: Veba Doktoru - Mayor Grom: Chumnoy Doktor - 2021 | Filmbol.org
Encoded date                             : UTC 2021-07-10 16:23:52
Writing application                      : mkvmerge v31.0.0 ('Dolores In A Shoestand') 64-bit
Writing library                          : libebml v1.3.6 + libmatroska v1.4.9

Video
ID                                       : 1
Format                                   : AVC
Format/Info                              : Advanced Video Codec
Format profile                           : [email protected]
Format settings                          : CABAC / 2 Ref Frames
Format settings, CABAC                   : Yes
Format settings, Reference frames        : 2 frames
Codec ID                                 : V_MPEG4/ISO/AVC
Duration                                 : 2 h 16 min
Bit rate                                 : 2 397 kb/s
Width                                    : 1 920 pixels
Height                                   : 804 pixels
Display aspect ratio                     : 2.40:1
Frame rate mode                          : Constant
Frame rate                               : 24.000 FPS
Color space                              : YUV
Chroma subsampling                       : 4:2:0
Bit depth                                : 8 bits
Scan type                                : Progressive
Bits/(Pixel*Frame)                       : 0.065
Stream size                              : 2.29 GiB (80%)
Title                                    : Komiser Grom: Veba Doktoru - Mayor Grom: Chumnoy Doktor - 2021 | Filmbol.org
Default                                  : Yes
Forced                                   : No

Audio #1
ID                                       : 2
Format                                   : AC-3
Format/Info                              : Audio Coding 3
Commercial name                          : Dolby Digital
Codec ID                                 : A_AC3
Duration                                 : 2 h 18 min
Bit rate mode                            : Constant
Bit rate                                 : 384 kb/s
Channel(s)                               : 6 channels
Channel layout                           : L R C LFE Ls Rs
Sampling rate                            : 48.0 kHz
Frame rate                               : 31.250 FPS (1536 SPF)
Compression mode                         : Lossy
Stream size                              : 380 MiB (13%)
Title                                    : Komiser Grom: Veba Doktoru - Mayor Grom: Chumnoy Doktor - 2021 | Filmbol.org
Language                                 : Turkish
Service kind                             : Complete Main
Default                                  : Yes
Forced                                   : No

Audio #2
ID                                       : 3
Format                                   : AC-3
Format/Info                              : Audio Coding 3
Commercial name                          : Dolby Digital
Codec ID                                 : A_AC3
Duration                                 : 2 h 16 min
Bit rate mode                            : Constant
Bit rate                                 : 192 kb/s
Channel(s)                               : 2 channels
Channel layout                           : L R
Sampling rate                            : 48.0 kHz
Frame rate                               : 31.250 FPS (1536 SPF)
Compression mode                         : Lossy
Stream size                              : 188 MiB (6%)
Title                                    : Komiser Grom: Veba Doktoru - Mayor Grom: Chumnoy Doktor - 2021 | Filmbol.org
Language                                 : Russian
Service kind                             : Complete Main
Default                                  : No
Forced                                   : No

Text #1
ID                                       : 4
Format                                   : UTF-8
Codec ID                                 : S_TEXT/UTF8
Codec ID/Info                            : UTF-8 Plain Text
Duration                                 : 2 h 16 min
Bit rate                                 : 0 b/s
Count of elements                        : 38
Stream size                              : 892 Bytes (0%)
Title                                    : Komiser Grom: Veba Doktoru - Mayor Grom: Chumnoy Doktor - 2021 | Filmbol.org
Language                                 : Turkish
Default                                  : Yes
Forced                                   : Yes

Text #2
ID                                       : 5
Format                                   : UTF-8
Codec ID                                 : S_TEXT/UTF8
Codec ID/Info                            : UTF-8 Plain Text
Duration                                 : 2 h 16 min
Bit rate                                 : 44 b/s
Count of elements                        : 1622
Stream size                              : 44.6 KiB (0%)
Title                                    : Komiser Grom: Veba Doktoru - Mayor Grom: Chumnoy Doktor - 2021 | Filmbol.org
Language                                 : Turkish
Default                                  : No
Forced                                   : No

Film Detayları


 Komiser Grom: Veba Doktoru

 Komiser Grom: Veba Doktoru

 Komiser Grom: Veba Doktoru


Film Fragmanı


Film Detayları



Zip Şifresi: filmbol.org Aşağıdaki butona tıklayarak kopyalabilirsiniz.


Uptobox ile indir

1Fichier ile indir

1Fichier'den İndiremiyor musun? Tıklayın!





Filmbol Cloud

Bunun için üzgünüz ancak, bu linke sadece premium üyeler erişebilir.




WWW
Şuan Online!
Şuan Online!
Aspirin46 Süper Üye
***
Super Üye
  • Konular0
  • Mesajlar93
  • Rep puanı 0
süper
Şuan Online!
Şuan Online!
TheSteeL Chief Executive Officer
******
CEO
(26-07-2021, Saat: 14:28)Aspirin46 Adlı Kullanıcıdan Alıntı: süper
İyi Seyirler


Hızlı Menü: