Filmbol Forum Film İndir BRRip XviD v Komiser Grom: Veba Doktoru (Mayor Grom: Chumnoy Doktor) - 2021 - TR - BRRip XviD | tt7601480
Bildirimi Kapat
Merhaba , site giderlerini bir nebze olsun karşılamak adına link kısaltma servisleri kullanmaya başladık. İndirme linkleri sizi ouo.io adresinde yönlendirecek, 3 saniye geçtikten sonra Get Link butonuna tıklayarak linke ulaşacaksınız. Premium üyeler bu durumdan etkilenmeyecektir.


Premium Üyelik Al

Komiser Grom: Veba Doktoru (Mayor Grom: Chumnoy Doktor) - 2021 - TR - BRRip XviD | tt7601480
TheSteeL
Komiser Grom: Veba Doktoru (Mayor Grom: Chumnoy Doktor) - 2021 - TR - BRRip XviD | tt7601480
2
1901
  • Derecelendirme: 0/5 - 0 oy
  • 1
  • 2
  • 3
  • 4
  • 5
Konuyu Okuyanlar:3 Ziyaretçi
Şuan Online!
Filmin Yayınlanma Tarihi: 2021 
Şuan Online!
TheSteeL Chief Executive Officer
******
CEO


 Komiser Grom: Veba Doktoru



Igor diğer polislerin aksine, kendine dişli rakipler seçmeyi çok sever. Öyle ki bu yüzden kimsenin göz göze gelemeyeceği adamları alt etmeye başlar. Fakat şehir halkı asla mutlu değildir. Şehirde sürekli olarak yaşanan yolsuzluk iddiaları ve zengin suçluların hiç bir ceza almadan yargılaması ve serbest bırakılması, şehirde isyan tetikler. Bu isyandan fayda sağlayacak olan ve kendine Veba ismini koyan bu adam, şehirdeki zenginlerin işini bitirmeye başlar. İnsanın içine korku salan bu adamı yakalayabilecek tek kişi ise Igor'dur...

Komiser Grom: Veba Doktoru (2021) (Mayor Grom: Chumnoy Doktor) | tt7601480 Filmi Imdb'den 5500 kişi tarafından oylandı ve 6,4 puan aldı. Bu film için editör puanı %72 olarak belirlendi. İyi Seyirler!

Teknik Detaylar

Kod :
General
Unique ID                                : 320767745419972911377835019557319161512 (0xF1519EE04882D48D3FC7F72B002736A8)
Complete name                            : /home/TheSteel/Desktop/3/Komiser.Grom.Veba.Doktoru.2021.HDRip.XViD.TR.Filmbol.avi
Format                                  : Matroska
Format version                          : Version 4
File size                                : 1.40 GiB
Duration                                : 2 h 16 min
Overall bit rate                        : 1 464 kb/s
Movie name                              : Komiser Grom: Veba Doktoru - Mayor Grom: Chumnoy Doktor - 2021 | Filmbol.org
Encoded date                            : UTC 2021-07-10 16:22:23
Writing application                      : mkvmerge v31.0.0 ('Dolores In A Shoestand') 64-bit
Writing library                          : libebml v1.3.6 + libmatroska v1.4.9
FileExtension_Invalid                    : mkv mk3d mka mks

Video
ID                                      : 1
Format                                  : MPEG-4 Visual
Format profile                          : Advanced [email protected]
Format settings                          : BVOP1 / Custom Matrix
Format settings, BVOP                    : 1
Format settings, QPel                    : No
Format settings, GMC                    : No warppoints
Format settings, Matrix                  : Custom
Codec ID                                : V_MS/VFW/FOURCC / XVID
Codec ID/Hint                            : XviD
Duration                                : 2 h 16 min
Bit rate                                : 1 334 kb/s
Width                                    : 720 pixels
Height                                  : 304 pixels
Display aspect ratio                    : 2.35:1
Frame rate mode                          : Constant
Frame rate                              : 24.000 FPS
Color space                              : YUV
Chroma subsampling                      : 4:2:0
Bit depth                                : 8 bits
Scan type                                : Progressive
Compression mode                        : Lossy
Bits/(Pixel*Frame)                      : 0.254
Stream size                              : 1.27 GiB (91%)
Title                                    : Komiser Grom: Veba Doktoru - Mayor Grom: Chumnoy Doktor - 2021 | Filmbol.org
Writing library                          : XviD 73
Default                                  : Yes
Forced                                  : No

Audio
ID                                      : 2
Format                                  : MPEG Audio
Format version                          : Version 1
Format profile                          : Layer 3
Format settings                          : Joint stereo / MS Stereo
Codec ID                                : A_MPEG/L3
Codec ID/Hint                            : MP3
Duration                                : 2 h 16 min
Bit rate mode                            : Constant
Bit rate                                : 128 kb/s
Channel(s)                              : 2 channels
Sampling rate                            : 48.0 kHz
Frame rate                              : 41.667 FPS (1152 SPF)
Compression mode                        : Lossy
Stream size                              : 127 MiB (9%)
Title                                    : Komiser Grom: Veba Doktoru - Mayor Grom: Chumnoy Doktor - 2021 | Filmbol.org
Default                                  : Yes
Forced                                  : No

Film Detayları


 Komiser Grom: Veba Doktoru

 Komiser Grom: Veba Doktoru

 Komiser Grom: Veba Doktoru


Film Fragmanı


Film Detayları



Zip Şifresi: filmbol.org Aşağıdaki butona tıklayarak kopyalabilirsiniz.



Uptobox ile indir

1Fichier ile indir

1Fichier'den İndiremiyor musun? Tıklayın!





Filmbol Cloud

Bunun için üzgünüz ancak, bu linke sadece premium üyeler erişebilir.




WWW
Şuan Offine!
Şuan Offine!
omehmetakifo34 Yeni Üye
*
Üye
  • Konular0
  • Mesajlar4
  • Rep puanı 0
tşkkr
Şuan Online!
Şuan Online!
TheSteeL Chief Executive Officer
******
CEO
(26-07-2021, Saat: 22:22)omehmetakifo34 Adlı Kullanıcıdan Alıntı: tşkkr
İyi Seyirler


Hızlı Menü: