⤤ Premium'a Yükselt

Ziyaretçi, diziler sık sık telif aldığı için artık MEGA linkleri eklememeye karar verdik. Yeni dizilerde mega linkleri görmeyeceksin. Bu bir hata olmadığı için, lütfen raporlama. x

Filmbol Forum Film İndir UHD - ULTRA HD - 4K v Oblivion - 2013 - TR+ORG - UHD (4K) - 10Bit-x265 | tt1483013



Oblivion - 2013 - TR+ORG - UHD (4K) - 10Bit-x265 | tt1483013
TheSteeL
Oblivion - 2013 - TR+ORG - UHD (4K) - 10Bit-x265 | tt1483013
17
452
  • Derecelendirme: 0/5 - 0 oy
  • 1
  • 2
  • 3
  • 4
  • 5
Konuyu Okuyanlar:1 Ziyaretçi
Şuan Online!
Filmin Yayınlanma Tarihi: 2013 
WWW
Rapor Et!
Şuan Online!
TheSteeL Chief Executive Officer
******
CEO



 Oblivion



Oblivion, yönetmen koltuğunda Joseph Kosinski'nin oturduğu, başrol oyuncusunun Tom Cruise olduğu bir film olarak karşımıza çıkıyor. Başarılı bir Bilim Kurgu filmi olan Oblivion'un vizyon tarihi ise 2013. İleri tarihte geçen filmde "Dünyamız" yok olmuş, insanlık ise başka bir gezegene kaçmıştır. Jack isminde özel yetiştirilmiş bir insan ise bu eski bitik dünyaya gönderilerek burada canlı yaşamlar olup olmadığını sorgulama görevi verilir. Jack tüm hazırlıkları yapar ve dünya'ya gelir. Burada hedeflerinin en önemlisi, hâlâ yaşam olup olmadığı ya da yaşama elverişli olup olmadığını araştırmaktır. Fakat Jack işin içine girdikçe işler garipleşir ve ilginç bir noktaya evrilir...

Oblivion (2013) | tt1483013 Filmi Imdb'den 495000 kişi tarafından oylandı ve 7,0 puan aldı. Bu film için editör puanı %84 olarak belirlendi. İyi Seyirler!

Teknik Detaylar

Kod :
General
Unique ID                                : 274753960778148389422106031798825485074 (0xCEB3B023666F53386EB855A153DB8312)
Complete name                            : /home/TheSteel/Desktop/4/Oblivion.2013.2160p.4K.Bluray.x265.HDR.HEVC.TR.ENG.Filmbol.mkv
Format                                   : Matroska
Format version                           : Version 4
File size                                : 10.4 GiB
Duration                                 : 2 h 4 min
Overall bit rate mode                    : Variable
Overall bit rate                         : 12.0 Mb/s
Movie name                               : Oblivion - 2013 | Filmbol.org
Encoded date                             : UTC 2021-07-07 12:46:11
Writing application                      : mkvmerge v31.0.0 ('Dolores In A Shoestand') 64-bit
Writing library                          : libebml v1.3.6 + libmatroska v1.4.9

Video
ID                                       : 1
Format                                   : HEVC
Format/Info                              : High Efficiency Video Coding
Format profile                           : Main [email protected]@High
HDR format                               : SMPTE ST 2086, HDR10 compatible
Codec ID                                 : V_MPEGH/ISO/HEVC
Duration                                 : 2 h 4 min
Bit rate                                 : 7 177 kb/s
Width                                    : 3 840 pixels
Height                                   : 1 600 pixels
Display aspect ratio                     : 2.40:1
Frame rate mode                          : Constant
Frame rate                               : 23.976 (24000/1001) FPS
Color space                              : YUV
Chroma subsampling                       : 4:2:0 (Type 2)
Bit depth                                : 10 bits
Bits/(Pixel*Frame)                       : 0.049
Stream size                              : 6.25 GiB (60%)
Title                                    : 4K - Filmbol.org
Writing library                          : x265 2.6+14-f09f3b4a2115:[Windows][GCC 7.2.0][64 bit] 10bit
Encoding settings                        : cpuid=1173503 / frame-threads=4 / numa-pools=16 / wpp / no-pmode / no-pme / no-psnr / no-ssim / log-level=2 / input-csp=1 / input-res=3840x1600 / interlace=0 / total-frames=179267 / level-idc=51 / high-tier=1 / uhd-bd=0 / ref=4 / no-allow-non-conformance / repeat-headers / annexb / aud / hrd / info / hash=0 / no-temporal-layers / no-open-gop / min-keyint=24 / keyint=240 / gop-lookahead=0 / bframes=4 / b-adapt=2 / b-pyramid / bframe-bias=0 / rc-lookahead=25 / lookahead-slices=4 / scenecut=40 / no-intra-refresh / ctu=64 / min-cu-size=8 / rect / no-amp / max-tu-size=32 / tu-inter-depth=1 / tu-intra-depth=1 / limit-tu=0 / rdoq-level=2 / dynamic-rd=0.00 / no-ssim-rd / signhide / no-tskip / nr-intra=0 / nr-inter=0 / no-constrained-intra / no-strong-intra-smoothing / max-merge=3 / limit-refs=3 / limit-modes / me=3 / subme=3 / merange=57 / temporal-mvp / weightp / no-weightb / no-analyze-src-pics / deblock=-3:-3 / no-sao / no-sao-non-deblock / rd=4 / no-early-skip / rskip / no-fast-intra / no-tskip-fast / no-cu-lossless / no-b-intra / no-splitrd-skip / rdpenalty=0 / psy-rd=2.00 / psy-rdoq=1.00 / no-rd-refine / analysis-reuse-mode=0 / no-lossless / cbqpoffs=0 / crqpoffs=0 / rc=crf / crf=17.0 / qcomp=0.60 / qpstep=4 / stats-write=0 / stats-read=0 / vbv-maxrate=160000 / vbv-bufsize=160000 / vbv-init=0.9 / crf-max=0.0 / crf-min=0.0 / ipratio=1.40 / pbratio=1.30 / aq-mode=1 / aq-strength=1.00 / cutree / zone-count=0 / no-strict-cbr / qg-size=32 / no-rc-grain / qpmax=69 / qpmin=0 / no-const-vbv / sar=1 / overscan=0 / videoformat=5 / range=0 / colorprim=9 / transfer=16 / colormatrix=9 / chromaloc=1 / chromaloc-top=2 / chromaloc-bottom=2 / display-window=0 / master-display=G(13250,34500)B(7500,3000)R(34000,16000)WP(15635,16450)L(10000000,50) / max-cll=1000,400 / min-luma=0 / max-luma=1023 / log2-max-poc-lsb=8 / vui-timing-info / vui-hrd-info / slices=1 / opt-qp-pps / opt-ref-list-length-pps / no-multi-pass-opt-rps / scenecut-bias=0.05 / no-opt-cu-delta-qp / no-aq-motion / hdr / hdr-opt / no-dhdr10-opt / analysis-reuse-level=5 / scale-factor=0 / refine-intra=0 / refine-inter=0 / refine-mv=0 / no-limit-sao / ctu-info=0 / no-lowpass-dct / refine-mv-type=0 / copy-pic=1
Default                                  : Yes
Forced                                   : No
Color range                              : Limited
Color primaries                          : BT.2020
Transfer characteristics                 : PQ
Matrix coefficients                      : BT.2020 non-constant
Mastering display color primaries        : Display P3
Mastering display luminance              : min: 0.0050 cd/m2, max: 1000 cd/m2
Maximum Content Light Level              : 1000 cd/m2
Maximum Frame-Average Light Level        : 400 cd/m2

Audio #1
ID                                       : 2
Format                                   : AC-3
Format/Info                              : Audio Coding 3
Commercial name                          : Dolby Digital
Codec ID                                 : A_AC3
Duration                                 : 2 h 4 min
Bit rate mode                            : Constant
Bit rate                                 : 448 kb/s
Channel(s)                               : 6 channels
Channel layout                           : L R C LFE Ls Rs
Sampling rate                            : 48.0 kHz
Frame rate                               : 31.250 FPS (1536 SPF)
Compression mode                         : Lossy
Stream size                              : 400 MiB (4%)
Title                                    : Türkçe - Filmbol.org
Language                                 : Turkish
Service kind                             : Complete Main
Default                                  : Yes
Forced                                   : No

Audio #2
ID                                       : 3
Format                                   : MLP FBA 16-ch
Format/Info                              : Meridian Lossless Packing FBA with 16-channel presentation
Commercial name                          : Dolby TrueHD with Dolby Atmos
Codec ID                                 : A_TRUEHD
Duration                                 : 2 h 4 min
Bit rate mode                            : Variable
Bit rate                                 : 4 309 kb/s
Maximum bit rate                         : 7 854 kb/s
Channel(s)                               : 8 channels
Channel layout                           : L R C LFE Ls Rs Lb Rb
Sampling rate                            : 48.0 kHz
Frame rate                               : 1 200.000 FPS (40 SPF)
Compression mode                         : Lossless
Stream size                              : 3.75 GiB (36%)
Title                                    : Orjinal Dil - Filmbol.org
Language                                 : English
Default                                  : No
Forced                                   : No
Number of dynamic objects                : 11
Bed channel count                        : 1 channel
Bed channel configuration                : LFE

Text #1
ID                                       : 4
Format                                   : UTF-8
Codec ID                                 : S_TEXT/UTF8
Codec ID/Info                            : UTF-8 Plain Text
Duration                                 : 1 h 9 min
Bit rate                                 : 0 b/s
Count of elements                        : 6
Stream size                              : 110 Bytes (0%)
Title                                    : Türkçe - Filmbol.org
Language                                 : Turkish
Default                                  : Yes
Forced                                   : Yes

Text #2
ID                                       : 5
Format                                   : UTF-8
Codec ID                                 : S_TEXT/UTF8
Codec ID/Info                            : UTF-8 Plain Text
Duration                                 : 1 h 57 min
Bit rate                                 : 31 b/s
Count of elements                        : 868
Stream size                              : 26.9 KiB (0%)
Title                                    : Türkçe - Filmbol.org
Language                                 : Turkish
Default                                  : No
Forced                                   : No

Film Detayları


 Oblivion

 Oblivion

 Oblivion


Film Fragmanı


Film İndir


Rar Şifresi: filmbol.org










Şuan Offine!
Rapor Et!
Şuan Offine!
nseyhan Üye
*
Üye
  • Konular0
  • Mesajlar50
  • Rep puanı 0
teşekkürler.
Şuan Offine!
Rapor Et!
Şuan Offine!
neco52 Uzman Üye
**
Uzman Üye
  • Konular0
  • Mesajlar295
  • Rep puanı 0
Teşekkürler.
Şuan Offine!
Rapor Et!
Şuan Offine!
cumhurkurt Üye
*
Üye
  • Konular0
  • Mesajlar278
  • Rep puanı 10
emeginize saglik
Şuan Offine!
Rapor Et!
Şuan Offine!
turko01 Üye
*
Üye
  • Konular0
  • Mesajlar1
  • Rep puanı 0
Teşekkürler.
Şuan Online!
Rapor Et!
Şuan Online!
kody Süper Üye
***
Super Üye
  • Konular0
  • Mesajlar478
  • Rep puanı 1
Teşekkürler.
Şuan Offine!
Rapor Et!
Şuan Offine!
EjderYaAvcısı Üye
*
Üye
  • Konular0
  • Mesajlar26
  • Rep puanı 0
Teşekkürler.
Şuan Offine!
Rapor Et!
Şuan Offine!
hunter Süper Üye
***
Super Üye
  • Konular0
  • Mesajlar490
  • Rep puanı 10
teşekkürler
Şuan Offine!
Rapor Et!
Şuan Offine!
ruslan94664 Üye
*
Üye
  • Konular0
  • Mesajlar28
  • Rep puanı 0
Teşekkürler.
Şuan Offine!
Rapor Et!
Şuan Offine!
[email protected] Premium Üye
****
  • Konular39
  • Mesajlar126
  • Rep puanı 0
Teşekkürler.


Hızlı Menü: