⤤ Premium'a Yükselt

Ziyaretçi, diziler sık sık telif aldığı için artık MEGA linkleri eklememeye karar verdik. Yeni dizilerde mega linkleri görmeyeceksin. Bu bir hata olmadığı için, lütfen raporlama. x

Filmbol Forum Film İndir BRRip XviD v Oblivion - 2013 - TR - BRRip XviD | tt1483013



Oblivion - 2013 - TR - BRRip XviD | tt1483013
TheSteeL
Oblivion - 2013 - TR - BRRip XviD | tt1483013
2
174
  • Derecelendirme: 0/5 - 0 oy
  • 1
  • 2
  • 3
  • 4
  • 5
Konuyu Okuyanlar:1 Ziyaretçi
Şuan Online!
Filmin Yayınlanma Tarihi: 2013 
WWW
Rapor Et!
Şuan Online!
TheSteeL Chief Executive Officer
******
CEO



 Oblivion



Oblivion, yönetmen koltuğunda Joseph Kosinski'nin oturduğu, başrol oyuncusunun Tom Cruise olduğu bir film olarak karşımıza çıkıyor. Başarılı bir Bilim Kurgu filmi olan Oblivion'un vizyon tarihi ise 2013. İleri tarihte geçen filmde "Dünyamız" yok olmuş, insanlık ise başka bir gezegene kaçmıştır. Jack isminde özel yetiştirilmiş bir insan ise bu eski bitik dünyaya gönderilerek burada canlı yaşamlar olup olmadığını sorgulama görevi verilir. Jack tüm hazırlıkları yapar ve dünya'ya gelir. Burada hedeflerinin en önemlisi, hâlâ yaşam olup olmadığı ya da yaşama elverişli olup olmadığını araştırmaktır. Fakat Jack işin içine girdikçe işler garipleşir ve ilginç bir noktaya evrilir...

Oblivion (2013) | tt1483013 Filmi Imdb'den 495000 kişi tarafından oylandı ve 7,0 puan aldı. Bu film için editör puanı %84 olarak belirlendi. İyi Seyirler!

Teknik Detaylar

Kod :
General
Unique ID                                : 279274924324918849040830556360815573879 (0xD21A64D9BC5AD28C085A41BD829A7B77)
Complete name                            : /home/TheSteel/Desktop/4/Oblivion.2013.BRRip.Xvid.TR.Filmbol.avi
Format                                   : Matroska
Format version                           : Version 4
File size                                : 1.93 GiB
Duration                                 : 2 h 4 min
Overall bit rate                         : 2 221 kb/s
Movie name                               : Oblivion - 2013 | Filmbol.org
Encoded date                             : UTC 2021-07-07 11:49:54
Writing application                      : mkvmerge v31.0.0 ('Dolores In A Shoestand') 64-bit
Writing library                          : libebml v1.3.6 + libmatroska v1.4.9
FileExtension_Invalid                    : mkv mk3d mka mks

Video
ID                                       : 1
Format                                   : V_MS/VFW/FOURCC / xvid
Codec ID                                 : V_MS/VFW/FOURCC / xvid
Duration                                 : 2 h 4 min
Bit rate                                 : 1 771 kb/s
Width                                    : 720 pixels
Height                                   : 304 pixels
Display aspect ratio                     : 2.35:1
Frame rate mode                          : Constant
Frame rate                               : 23.976 (24000/1001) FPS
Bits/(Pixel*Frame)                       : 0.337
Stream size                              : 1.54 GiB (80%)
Title                                    : Oblivion - 2013 | Filmbol.org
Default                                  : Yes
Forced                                   : No

Audio
ID                                       : 2
Format                                   : AC-3
Format/Info                              : Audio Coding 3
Commercial name                          : Dolby Digital
Codec ID                                 : A_AC3
Duration                                 : 2 h 4 min
Bit rate mode                            : Constant
Bit rate                                 : 448 kb/s
Channel(s)                               : 6 channels
Channel layout                           : L R C LFE Ls Rs
Sampling rate                            : 48.0 kHz
Frame rate                               : 31.250 FPS (1536 SPF)
Compression mode                         : Lossy
Stream size                              : 400 MiB (20%)
Title                                    : Oblivion - 2013 | Filmbol.org
Service kind                             : Complete Main
Default                                  : Yes
Forced                                   : No

Film Detayları


 Oblivion

 Oblivion

 Oblivion


Film Fragmanı


Film İndir


Rar Şifresi: filmbol.org



Uptobox ile indir












Şuan Offine!
Rapor Et!
Şuan Offine!
nuri4235 Üye
*
Üye
  • Konular0
  • Mesajlar1
  • Rep puanı 0
Teşekkürler.
Şuan Offine!
Rapor Et!
Şuan Offine!
algül Süper Üye
***
Super Üye
  • Konular0
  • Mesajlar194
  • Rep puanı 0
Teşekkürler.


Hızlı Menü: