Filmbol Forum Film İndir 1080P v Indiana Jones ve Kristal Kafatası Krallığı (Indiana Jones and the Kingdom of the Crystal Skull) - 2008 - TR+ORG - 1080P | tt0367882
Bildirimi Kapat
Merhaba , site giderlerini bir nebze olsun karşılamak adına link kısaltma servisleri kullanmaya başladık. İndirme linkleri sizi ouo.io adresinde yönlendirecek, 3 saniye geçtikten sonra Get Link butonuna tıklayarak linke ulaşacaksınız. Premium üyeler bu durumdan etkilenmeyecektir.


Premium Üyelik Al

Indiana Jones ve Kristal Kafatası Krallığı (Indiana Jones and the Kingdom of the Crystal Skull) - 2008 - TR+ORG - 1080P | tt0367882
TheSteeL
Indiana Jones ve Kristal Kafatası Krallığı (Indiana Jones and the Kingdom of the Crystal Skull) - 2008 - TR+ORG - 1080P | tt0367882
0
26
  • Derecelendirme: 0/5 - 0 oy
  • 1
  • 2
  • 3
  • 4
  • 5
Konuyu Okuyanlar:1 Ziyaretçi
Şuan Online!
Filmin Yayınlanma Tarihi: 2008 
Şuan Online!
TheSteeL Chief Executive Officer
******
CEO


 Indiana Jones ve Kristal Kafatası Krallığı



Film sektörünün en yüksek bütçeli filmlerinden birisi olan Indiana Jones ve Kristal Kafatası Krallığı filminde yine Jones'in efsanevi maceraları devam ediyor. Soğuk savaş dönemini fantastik bir şekilde ele alan bu filmde, Sovyet birliğinin Jones'i takip etmesi ile başlıyor. Jones'in takip edilme sebebi ise elinde dünyayı değiştirebilecek olan bir kafatası olmasıdır. Peşine düşen rus ajanlar eğer bu önemli malzemeyi alabilirlerse Sovyet Birliği büyük bir güç kazanacak ve bu güç ile dünyada büyük canlar yakacaktır. Dünyayı kurtarabilecek kişi ise Indiana Jones'dir...

Indiana Jones ve Kristal Kafatası Krallığı (2008) | tt0367882 Filmi Imdb'den 432000 kişi tarafından oylandı ve 6,1 puan aldı. Bu film için editör puanı %74 olarak belirlendi. İyi Seyirler!

Teknik Detaylar

Kod :
General
Unique ID                                : 332618860218422231714053559641145983977 (0xFA3C0FF2A5D463E36691F83A6E15C3E9)
Complete name                            : /home/TheSteel/Desktop/1/Indiana.Jones.Ve.Kristal.Kafatası.Kralligi.2008.1080p.Bluray.x264.TR.ENG.Filmbol.mkv
Format                                   : Matroska
Format version                           : Version 4
File size                                : 2.20 GiB
Duration                                 : 2 h 2 min
Overall bit rate                         : 2 570 kb/s
Movie name                               : Indiana Jones and the Kingdom of the Crystal Skull - Indiana Jones ve Kristal Kafatası Krallığı - 2008 | Filmbol.org
Encoded date                             : UTC 2021-07-01 10:00:02
Writing application                      : mkvmerge v31.0.0 ('Dolores In A Shoestand') 64-bit
Writing library                          : libebml v1.3.6 + libmatroska v1.4.9

Video
ID                                       : 1
Format                                   : AVC
Format/Info                              : Advanced Video Codec
Format profile                           : [email protected]
Format settings                          : CABAC / 5 Ref Frames
Format settings, CABAC                   : Yes
Format settings, Reference frames        : 5 frames
Codec ID                                 : V_MPEG4/ISO/AVC
Duration                                 : 2 h 2 min
Bit rate                                 : 1 832 kb/s
Width                                    : 1 920 pixels
Height                                   : 800 pixels
Display aspect ratio                     : 2.40:1
Frame rate mode                          : Constant
Frame rate                               : 23.976 (24000/1001) FPS
Color space                              : YUV
Chroma subsampling                       : 4:2:0
Bit depth                                : 8 bits
Scan type                                : Progressive
Bits/(Pixel*Frame)                       : 0.050
Stream size                              : 1.57 GiB (71%)
Title                                    : 1080P - Filmbol.org
Writing library                          : x264 core 125 r2200 999b753
Encoding settings                        : cabac=1 / ref=5 / deblock=1:-1:-1 / analyse=0x3:0x133 / me=umh / subme=9 / psy=1 / psy_rd=1.00:0.15 / mixed_ref=1 / me_range=16 / chroma_me=1 / trellis=2 / 8x8dct=1 / cqm=0 / deadzone=21,11 / fast_pskip=1 / chroma_qp_offset=-3 / threads=12 / lookahead_threads=2 / sliced_threads=0 / nr=0 / decimate=1 / interlaced=0 / bluray_compat=0 / constrained_intra=0 / bframes=8 / b_pyramid=2 / b_adapt=2 / b_bias=0 / direct=3 / weightb=1 / open_gop=0 / weightp=2 / keyint=240 / keyint_min=23 / scenecut=40 / intra_refresh=0 / rc_lookahead=60 / rc=2pass / mbtree=1 / bitrate=1832 / ratetol=1.0 / qcomp=0.60 / qpmin=10 / qpmax=51 / qpstep=4 / cplxblur=20.0 / qblur=0.5 / ip_ratio=1.40 / aq=1:1.00
Default                                  : Yes
Forced                                   : No

Audio #1
ID                                       : 2
Format                                   : AC-3
Format/Info                              : Audio Coding 3
Commercial name                          : Dolby Digital
Codec ID                                 : A_AC3
Duration                                 : 2 h 2 min
Bit rate mode                            : Constant
Bit rate                                 : 640 kb/s
Channel(s)                               : 6 channels
Channel layout                           : L R C LFE Ls Rs
Sampling rate                            : 48.0 kHz
Frame rate                               : 31.250 FPS (1536 SPF)
Compression mode                         : Lossy
Stream size                              : 561 MiB (25%)
Title                                    : Türkçe - Filmbol.org
Language                                 : Turkish
Service kind                             : Complete Main
Default                                  : Yes
Forced                                   : No

Audio #2
ID                                       : 3
Format                                   : AAC LC
Format/Info                              : Advanced Audio Codec Low Complexity
Codec ID                                 : A_AAC-2
Duration                                 : 2 h 2 min
Bit rate                                 : 96.0 kb/s
Channel(s)                               : 2 channels
Channel layout                           : L R
Sampling rate                            : 48.0 kHz
Frame rate                               : 46.875 FPS (1024 SPF)
Compression mode                         : Lossy
Stream size                              : 83.9 MiB (4%)
Title                                    : Orjinal Dil - Filmbol.org
Language                                 : English
Default                                  : No
Forced                                   : No

Text
ID                                       : 4
Format                                   : UTF-8
Codec ID                                 : S_TEXT/UTF8
Codec ID/Info                            : UTF-8 Plain Text
Duration                                 : 2 h 1 min
Bit rate                                 : 37 b/s
Count of elements                        : 1027
Stream size                              : 33.2 KiB (0%)
Title                                    : Türkçe - Filmbol.org
Language                                 : Turkish
Default                                  : No
Forced                                   : No

Film Detayları


 Indiana Jones ve Kristal Kafatası Krallığı

 Indiana Jones ve Kristal Kafatası Krallığı

 Indiana Jones ve Kristal Kafatası Krallığı


Film Fragmanı


Film Detayları



Zip Şifresi: filmbol.org Aşağıdaki butona tıklayarak kopyalabilirsiniz.


Uptobox ile indir

1Fichier ile indir

1Fichier'den İndiremiyor musun? Tıklayın!





Filmbol Cloud

Bunun için üzgünüz ancak, bu linke sadece premium üyeler erişebilir.




WWW


Hızlı Menü: