Filmbol Forum Film İndir BRRip XviD v Indiana Jones ve Kristal Kafatası Krallığı (Indiana Jones and the Kingdom of the Crystal Skull) - 2008 - TR - BRRip XviD | tt0367882
Bildirimi Kapat
Merhaba , site giderlerini bir nebze olsun karşılamak adına link kısaltma servisleri kullanmaya başladık. İndirme linkleri sizi ouo.io adresinde yönlendirecek, 3 saniye geçtikten sonra Get Link butonuna tıklayarak linke ulaşacaksınız. Premium üyeler bu durumdan etkilenmeyecektir.


Premium Üyelik Al

Indiana Jones ve Kristal Kafatası Krallığı (Indiana Jones and the Kingdom of the Crystal Skull) - 2008 - TR - BRRip XviD | tt0367882
TheSteeL
Indiana Jones ve Kristal Kafatası Krallığı (Indiana Jones and the Kingdom of the Crystal Skull) - 2008 - TR - BRRip XviD | tt0367882
2
74
  • Derecelendirme: 0/5 - 0 oy
  • 1
  • 2
  • 3
  • 4
  • 5
Konuyu Okuyanlar:1 Ziyaretçi
Şuan Online!
Filmin Yayınlanma Tarihi: 2008 
Şuan Online!
TheSteeL Chief Executive Officer
******
CEO


 Indiana Jones ve Kristal Kafatası Krallığı



Film sektörünün en yüksek bütçeli filmlerinden birisi olan Indiana Jones ve Kristal Kafatası Krallığı filminde yine Jones'in efsanevi maceraları devam ediyor. Soğuk savaş dönemini fantastik bir şekilde ele alan bu filmde, Sovyet birliğinin Jones'i takip etmesi ile başlıyor. Jones'in takip edilme sebebi ise elinde dünyayı değiştirebilecek olan bir kafatası olmasıdır. Peşine düşen rus ajanlar eğer bu önemli malzemeyi alabilirlerse Sovyet Birliği büyük bir güç kazanacak ve bu güç ile dünyada büyük canlar yakacaktır. Dünyayı kurtarabilecek kişi ise Indiana Jones'dir...

Indiana Jones ve Kristal Kafatası Krallığı (2008) (Indiana Jones and the Kingdom of the Crystal Skull) | tt0367882 Filmi Imdb'den 432000 kişi tarafından oylandı ve 6,1 puan aldı. Bu film için editör puanı %74 olarak belirlendi. İyi Seyirler!

Teknik Detaylar

Kod :
General
Unique ID                                : 316793994088081402379602798252900216898 (0xEE544DCF1E5366FC7928FBE7D0A3F042)
Complete name                            : /home/TheSteel/Desktop/1/Indiana.Jones.Ve.Kristal.Kafatası.Krallığı.2008.BRRip.Xvid.TR.Filmbol.avi
Format                                   : Matroska
Format version                           : Version 4
File size                                : 690 MiB
Duration                                 : 2 h 2 min
Overall bit rate                         : 787 kb/s
Movie name                               : Indiana Jones and the Kingdom of the Crystal Skull - Indiana Jones ve Kristal Kafatası Krallığı - 2008 | Filmbol.org
Encoded date                             : UTC 2021-07-01 09:58:20
Writing application                      : mkvmerge v31.0.0 ('Dolores In A Shoestand') 64-bit
Writing library                          : libebml v1.3.6 + libmatroska v1.4.9
FileExtension_Invalid                    : mkv mk3d mka mks

Video
ID                                       : 1
Format                                   : MPEG-4 Visual
Format profile                           : Advanced [email protected]
Format settings                          : BVOP2
Format settings, BVOP                    : 2
Format settings, QPel                    : No
Format settings, GMC                     : No warppoints
Format settings, Matrix                  : Default (H.263)
Codec ID                                 : V_MS/VFW/FOURCC / XVID
Codec ID/Hint                            : XviD
Duration                                 : 2 h 2 min
Bit rate                                 : 689 kb/s
Width                                    : 656 pixels
Height                                   : 272 pixels
Display aspect ratio                     : 2.40:1
Frame rate mode                          : Constant
Frame rate                               : 23.976 (24000/1001) FPS
Color space                              : YUV
Chroma subsampling                       : 4:2:0
Bit depth                                : 8 bits
Scan type                                : Progressive
Compression mode                         : Lossy
Bits/(Pixel*Frame)                       : 0.161
Stream size                              : 604 MiB (88%)
Title                                    : Indiana Jones and the Kingdom of the Crystal Skull - Indiana Jones ve Kristal Kafatası Krallığı - 2008 | Filmbol.org
Writing library                          : XviD 1.2.1 (UTC 2008-12-04)
Default                                  : Yes
Forced                                   : No

Audio
ID                                       : 2
Format                                   : MPEG Audio
Format version                           : Version 1
Format profile                           : Layer 3
Format settings                          : Joint stereo
Codec ID                                 : A_MPEG/L3
Codec ID/Hint                            : MP3
Duration                                 : 2 h 2 min
Bit rate mode                            : Constant
Bit rate                                 : 96.0 kb/s
Channel(s)                               : 2 channels
Sampling rate                            : 32.0 kHz
Frame rate                               : 27.778 FPS (1152 SPF)
Compression mode                         : Lossy
Stream size                              : 84.1 MiB (12%)
Title                                    : Indiana Jones and the Kingdom of the Crystal Skull - Indiana Jones ve Kristal Kafatası Krallığı - 2008 | Filmbol.org
Writing library                          : LAME3.90.3
Default                                  : Yes
Forced                                   : No

Film Detayları


 Indiana Jones ve Kristal Kafatası Krallığı

 Indiana Jones ve Kristal Kafatası Krallığı

 Indiana Jones ve Kristal Kafatası Krallığı


Film Fragmanı


Film Detayları



Zip Şifresi: filmbol.org Aşağıdaki butona tıklayarak kopyalabilirsiniz.



Uptobox ile indir

1Fichier ile indir

1Fichier'den İndiremiyor musun? Tıklayın!





Filmbol Cloud

Bunun için üzgünüz ancak, bu linke sadece premium üyeler erişebilir.




WWW
Şuan Online!
Şuan Online!
Space Yeni Üye
*
Üye
  • Konular0
  • Mesajlar57
  • Rep puanı 0
Saolun
Şuan Online!
Şuan Online!
TheSteeL Chief Executive Officer
******
CEO
(24-07-2021, Saat: 23:58)Space Adlı Kullanıcıdan Alıntı: Saolun
İyi Seyirler


Hızlı Menü: