Filmbol Forum Film İndir FHD - FULL HD v Gerçek masallar (Bedtime Stories) - 2008 - TR+ORG - FHD - x264 | tt0960731
Bildirimi Kapat
Merhaba , site giderlerini bir nebze olsun karşılamak adına link kısaltma servisleri kullanmaya başladık. İndirme linkleri sizi ouo.io adresinde yönlendirecek, 3 saniye geçtikten sonra Get Link butonuna tıklayarak linke ulaşacaksınız. Premium üyeler bu durumdan etkilenmeyecektir.


Premium Üyelik Al

Gerçek masallar (Bedtime Stories) - 2008 - TR+ORG - FHD - x264 | tt0960731
TheSteeL
Gerçek masallar (Bedtime Stories) - 2008 - TR+ORG - FHD - x264 | tt0960731
1
24
  • Derecelendirme: 0/5 - 0 oy
  • 1
  • 2
  • 3
  • 4
  • 5
Konuyu Okuyanlar:1 Ziyaretçi
Şuan Online!
Filmin Yayınlanma Tarihi: 2008 
Şuan Online!
TheSteeL Chief Executive Officer
******
CEO


 Gerçek masallar



Skeeter Bronson, sıradan bir hayata sahip normal bir insandır. Çocukları çok seven Skeeter onlara her gece masal anlatmayı çok sever. Çocukların da onun masal anlatmasını istemesi üzerine bunu net olarak günlük yapar. Ancak zamanla Skeeter bir şeyler farkeder. Anlattığı masallar, o gecenin sabahında gerçek olmaktadır. Bu yüzden artık daha fantastik şeyler anlatmanın vakti geldiğini düşünür... Yüzyılın büyük ses getiren komedi sanatçısı Adam Sandler'in baş rolünü oynadığı ve yapımcısının Disnep olduğu Gerçek Masallar filmi, sırf bu yüzden bile izlenmesi gereken filmler listesine alınabilir.

Gerçek masallar (2008) (Bedtime Stories) | tt0960731 Filmi Imdb'den 90000 kişi tarafından oylandı ve 6,0 puan aldı. Bu film için editör puanı %70 olarak belirlendi. İyi Seyirler!

Teknik Detaylar

Kod :
General
Unique ID                                : 171255900513514507682582431645973465782 (0x80D6AFCB41A94C159C60E1540579CAB6)
Complete name                            : /home/TheSteel/Desktop/1/Gercek.Masallar.2008.FHD.Bluray.x264.TR.ENG.Filmbol.mkv
Format                                   : Matroska
Format version                           : Version 4
File size                                : 8.21 GiB
Duration                                 : 1 h 39 min
Overall bit rate                         : 11.8 Mb/s
Movie name                               : Bedtime Stories - Gercek Masallar - 2008 | Filmbol.org
Encoded date                             : UTC 2021-06-28 22:06:09
Writing application                      : mkvmerge v31.0.0 ('Dolores In A Shoestand') 64-bit
Writing library                          : libebml v1.3.6 + libmatroska v1.4.9

Video
ID                                       : 1
Format                                   : AVC
Format/Info                              : Advanced Video Codec
Format profile                           : [email protected]
Format settings                          : CABAC / 5 Ref Frames
Format settings, CABAC                   : Yes
Format settings, Reference frames        : 5 frames
Codec ID                                 : V_MPEG4/ISO/AVC
Duration                                 : 1 h 39 min
Bit rate                                 : 9 953 kb/s
Width                                    : 1 920 pixels
Height                                   : 816 pixels
Display aspect ratio                     : 2.35:1
Frame rate mode                          : Constant
Frame rate                               : 23.976 FPS
Color space                              : YUV
Chroma subsampling                       : 4:2:0
Bit depth                                : 8 bits
Scan type                                : Progressive
Bits/(Pixel*Frame)                       : 0.265
Stream size                              : 6.90 GiB (84%)
Title                                    : FHD - Filmbol.org
Writing library                          : x264 core 67 r1127 8d82fec
Encoding settings                        : cabac=1 / ref=5 / deblock=1:0:0 / analyse=0x3:0x113 / me=umh / subme=7 / psy_rd=1.0:0.0 / mixed_ref=1 / me_range=16 / chroma_me=1 / trellis=1 / 8x8dct=1 / cqm=0 / deadzone=21,11 / chroma_qp_offset=-2 / threads=12 / nr=0 / decimate=1 / mbaff=0 / bframes=3 / b_pyramid=1 / b_adapt=1 / b_bias=0 / direct=3 / wpredb=1 / keyint=250 / keyint_min=25 / scenecut=40 / rc=2pass / bitrate=9953 / ratetol=1.0 / qcomp=0.60 / qpmin=10 / qpmax=51 / qpstep=4 / cplxblur=20.0 / qblur=0.5 / ip_ratio=1.40 / pb_ratio=1.30 / aq=1:1.00
Language                                 : English
Default                                  : Yes
Forced                                   : No

Audio #1
ID                                       : 2
Format                                   : AC-3
Format/Info                              : Audio Coding 3
Commercial name                          : Dolby Digital
Codec ID                                 : A_AC3
Duration                                 : 1 h 39 min
Bit rate mode                            : Constant
Bit rate                                 : 384 kb/s
Channel(s)                               : 6 channels
Channel layout                           : L R C LFE Ls Rs
Sampling rate                            : 48.0 kHz
Frame rate                               : 31.250 FPS (1536 SPF)
Compression mode                         : Lossy
Stream size                              : 272 MiB (3%)
Title                                    : Türkçe - Filmbol.org
Language                                 : Turkish
Service kind                             : Complete Main
Default                                  : Yes
Forced                                   : No

Audio #2
ID                                       : 3
Format                                   : DTS
Format/Info                              : Digital Theater Systems
Codec ID                                 : A_DTS
Duration                                 : 1 h 39 min
Bit rate mode                            : Constant
Bit rate                                 : 1 509 kb/s
Channel(s)                               : 6 channels
Channel layout                           : C L R Ls Rs LFE
Sampling rate                            : 48.0 kHz
Frame rate                               : 93.750 FPS (512 SPF)
Bit depth                                : 24 bits
Compression mode                         : Lossy
Stream size                              : 1.05 GiB (13%)
Title                                    : Orjinal Dil - Filmbol.org
Language                                 : English
Default                                  : No
Forced                                   : No

Film Detayları


 Gerçek masallar

 Gerçek masallar

 Gerçek masallar


Film Fragmanı


Film Detayları



Zip Şifresi: filmbol.org Aşağıdaki butona tıklayarak kopyalabilirsiniz.





Filmbol Cloud

Bunun için üzgünüz ancak, bu linke sadece premium üyeler erişebilir.




WWW
Şuan Offine!
Şuan Offine!
muchomucho Yeni Üye
*
Üye
  • Konular0
  • Mesajlar2
  • Rep puanı 0
teşekkürler


Hızlı Menü: