Filmbol Forum Film İndir 720P v Gerçek masallar (Bedtime Stories) - 2008 - TR+ORG - 720P | tt0960731
Bildirimi Kapat
Merhaba , site giderlerini bir nebze olsun karşılamak adına link kısaltma servisleri kullanmaya başladık. İndirme linkleri sizi ouo.io adresinde yönlendirecek, 3 saniye geçtikten sonra Get Link butonuna tıklayarak linke ulaşacaksınız. Premium üyeler bu durumdan etkilenmeyecektir.


Premium Üyelik Al

Gerçek masallar (Bedtime Stories) - 2008 - TR+ORG - 720P | tt0960731
TheSteeL
Gerçek masallar (Bedtime Stories) - 2008 - TR+ORG - 720P | tt0960731
2
49
  • Derecelendirme: 0/5 - 0 oy
  • 1
  • 2
  • 3
  • 4
  • 5
Konuyu Okuyanlar:3 Ziyaretçi
Şuan Online!
Filmin Yayınlanma Tarihi: 2008 
Şuan Online!
TheSteeL Chief Executive Officer
******
CEO


 Gerçek masallar



Skeeter Bronson, sıradan bir hayata sahip normal bir insandır. Çocukları çok seven Skeeter onlara her gece masal anlatmayı çok sever. Çocukların da onun masal anlatmasını istemesi üzerine bunu net olarak günlük yapar. Ancak zamanla Skeeter bir şeyler farkeder. Anlattığı masallar, o gecenin sabahında gerçek olmaktadır. Bu yüzden artık daha fantastik şeyler anlatmanın vakti geldiğini düşünür... Yüzyılın büyük ses getiren komedi sanatçısı Adam Sandler'in baş rolünü oynadığı ve yapımcısının Disnep olduğu Gerçek Masallar filmi, sırf bu yüzden bile izlenmesi gereken filmler listesine alınabilir.

Gerçek masallar (2008) (Bedtime Stories) | tt0960731 Filmi Imdb'den 90000 kişi tarafından oylandı ve 6,0 puan aldı. Bu film için editör puanı %70 olarak belirlendi. İyi Seyirler!

Teknik Detaylar

Kod :
General
Unique ID                                : 152541494362697817011157072377716907703 (0x72C26C553A4299235181AF7764C39EB7)
Complete name                            : /home/TheSteel/Desktop/1/Gercek.Masallar.2008.720p.BluRay.x264.TR.ENG.Filmbol.mkv
Format                                   : Matroska
Format version                           : Version 4
File size                                : 1.00 GiB
Duration                                 : 1 h 39 min
Overall bit rate                         : 1 445 kb/s
Movie name                               : Bedtime Stories - Gercek Masallar - 2008 | Filmbol.org
Encoded date                             : UTC 2021-06-28 21:39:23
Writing application                      : mkvmerge v31.0.0 ('Dolores In A Shoestand') 64-bit
Writing library                          : libebml v1.3.6 + libmatroska v1.4.9

Video
ID                                       : 1
Format                                   : AVC
Format/Info                              : Advanced Video Codec
Format profile                           : [email protected]
Format settings                          : CABAC / 4 Ref Frames
Format settings, CABAC                   : Yes
Format settings, Reference frames        : 4 frames
Codec ID                                 : V_MPEG4/ISO/AVC
Duration                                 : 1 h 39 min
Bit rate                                 : 965 kb/s
Width                                    : 1 280 pixels
Height                                   : 544 pixels
Display aspect ratio                     : 2.35:1
Frame rate mode                          : Constant
Frame rate                               : 23.976 (24000/1001) FPS
Original frame rate                      : 23.976 (23976/1000) FPS
Color space                              : YUV
Chroma subsampling                       : 4:2:0
Bit depth                                : 8 bits
Scan type                                : Progressive
Bits/(Pixel*Frame)                       : 0.058
Stream size                              : 685 MiB (67%)
Title                                    : 720P - Filmbol.org
Writing library                          : x264 core 132 r2 76a5c3a
Encoding settings                        : cabac=1 / ref=4 / deblock=1:-1:-1 / analyse=0x3:0x133 / me=umh / subme=9 / psy=1 / psy_rd=1.00:0.15 / mixed_ref=1 / me_range=24 / chroma_me=1 / trellis=2 / 8x8dct=1 / cqm=0 / deadzone=21,11 / fast_pskip=0 / chroma_qp_offset=-3 / threads=36 / lookahead_threads=3 / sliced_threads=0 / nr=0 / decimate=1 / interlaced=0 / bluray_compat=0 / constrained_intra=0 / bframes=3 / b_pyramid=2 / b_adapt=2 / b_bias=0 / direct=3 / weightb=1 / open_gop=0 / weightp=2 / keyint=250 / keyint_min=23 / scenecut=40 / intra_refresh=0 / rc_lookahead=60 / rc=2pass / mbtree=1 / bitrate=965 / ratetol=1.0 / qcomp=0.60 / qpmin=0 / qpmax=69 / qpstep=4 / cplxblur=20.0 / qblur=0.5 / vbv_maxrate=31250 / vbv_bufsize=31250 / nal_hrd=none / ip_ratio=1.40 / aq=1:1.00
Default                                  : Yes
Forced                                   : No
Color range                              : Limited
Color primaries                          : BT.709
Matrix coefficients                      : BT.709

Audio #1
ID                                       : 2
Format                                   : AC-3
Format/Info                              : Audio Coding 3
Commercial name                          : Dolby Digital
Codec ID                                 : A_AC3
Duration                                 : 1 h 39 min
Bit rate mode                            : Constant
Bit rate                                 : 384 kb/s
Channel(s)                               : 6 channels
Channel layout                           : L R C LFE Ls Rs
Sampling rate                            : 48.0 kHz
Frame rate                               : 31.250 FPS (1536 SPF)
Compression mode                         : Lossy
Delay relative to video                  : -83 ms
Stream size                              : 272 MiB (27%)
Title                                    : Türkçe - Filmbol.org
Language                                 : Turkish
Service kind                             : Complete Main
Default                                  : Yes
Forced                                   : No

Audio #2
ID                                       : 3
Format                                   : AAC LC
Format/Info                              : Advanced Audio Codec Low Complexity
Codec ID                                 : A_AAC-2
Duration                                 : 1 h 39 min
Bit rate                                 : 93.8 kb/s
Channel(s)                               : 2 channels
Channel layout                           : L R
Sampling rate                            : 48.0 kHz
Frame rate                               : 46.875 FPS (1024 SPF)
Compression mode                         : Lossy
Delay relative to video                  : -83 ms
Stream size                              : 66.6 MiB (6%)
Title                                    : Orjinal Dil - Filmbol.org
Language                                 : English
Default                                  : No
Forced                                   : No

Film Detayları


 Gerçek masallar

 Gerçek masallar

 Gerçek masallar


Film Fragmanı


Film Detayları



Zip Şifresi: filmbol.org Aşağıdaki butona tıklayarak kopyalabilirsiniz.


Uptobox ile indir

1Fichier ile indir

1Fichier'den İndiremiyor musun? Tıklayın!





Filmbol Cloud

Bunun için üzgünüz ancak, bu linke sadece premium üyeler erişebilir.




WWW
Şuan Offine!
Şuan Offine!
stb Süper Üye
***
Super Üye
  • Konular0
  • Mesajlar58
  • Rep puanı 0
Teşekkürler
Şuan Online!
Şuan Online!
TheSteeL Chief Executive Officer
******
CEO
(30-06-2021, Saat: 02:31)stb Adlı Kullanıcıdan Alıntı: Teşekkürler
İyi Seyirler


Hızlı Menü: