Filmbol Forum Film İndir 1080P v Tetikçi (Shooter) - 2007 - TR+ORG - 1080P | tt0822854
Bildirimi Kapat
Merhaba , site giderlerini bir nebze olsun karşılamak adına link kısaltma servisleri kullanmaya başladık. İndirme linkleri sizi ouo.io adresinde yönlendirecek, 3 saniye geçtikten sonra Get Link butonuna tıklayarak linke ulaşacaksınız. Premium üyeler bu durumdan etkilenmeyecektir.


Premium Üyelik Al

Tetikçi (Shooter) - 2007 - TR+ORG - 1080P | tt0822854
TheSteeL
Tetikçi (Shooter) - 2007 - TR+ORG - 1080P | tt0822854
2
139
  • Derecelendirme: 0/5 - 0 oy
  • 1
  • 2
  • 3
  • 4
  • 5
Konuyu Okuyanlar:1 Ziyaretçi
Şuan Online!
Filmin Yayınlanma Tarihi: 2007 
Şuan Online!
TheSteeL Chief Executive Officer
******
CEO


 Tetikçi



Mark Wahlberg, hayatını bir keskin nişancı olarak geçirmiş ve sonunda bu işten bıkarak bırakmış emekli bir askerdir. Keskin nişancı olmak onun hayatında olumlu şeyler bıraksa da ağırlıklı olarak olumsuz etki yaratmıştır. Bu yüzden net bir şekilde emeklilik kararı alarak işi net olarak bırakmıştır. Kalan hayatını sıradan bir biçimde ve kendisine vakit ayırarak geçirmek isteyen Mark, güzel bir evde sıradan bir hayat sürmeye başlar. Fakat bir süre sonra ondan yardım istenir. Hiç kimsenin beceremeyeceği şekilde önemli bir görev verdiklerinde Mark, zoru sevdiğinden kabul eder. Fakat işin içine girince hiç anlattıkları gibi olmadığını anlar. Detaylara indikten sonra Mark'a verilen görev aslında ABD devletinin seçilmiş başkanına suikast yapma görevi olduğu anlaşılır. Mark tabii ki bu işten vazgeçmek ister ancak bir anda vazgeçerse kendinin de öldürüleceğinin farkındadır. Bu yüzden farklı bir yol seçerek başkanı korumaya çalışır...

Tetikçi (2007) | tt0822854 Filmi Imdb'den 316500 kişi tarafından oylandı ve 7,2 puan aldı. Bu film için editör puanı %83 olarak belirlendi. İyi Seyirler!

Teknik Detaylar

Kod :
General
Unique ID                                : 162902904446841748542004607201857774571 (0x7A8DF54AA41DE4BC8EC3200CC05C23EB)
Complete name                            : /home/TheSteel/Desktop/4/Tetikci.2007.1080p.BluRay.x264.TR.ENG.Filmbol.mkv
Format                                   : Matroska
Format version                           : Version 4
File size                                : 2.13 GiB
Duration                                 : 2 h 5 min
Overall bit rate                         : 2 430 kb/s
Movie name                               : Shooter - Tetikçi - 2007 | Filmbol.org
Encoded date                             : UTC 2021-06-26 19:09:28
Writing application                      : mkvmerge v31.0.0 ('Dolores In A Shoestand') 64-bit
Writing library                          : libebml v1.3.6 + libmatroska v1.4.9

Video
ID                                       : 1
Format                                   : AVC
Format/Info                              : Advanced Video Codec
Format profile                           : [email protected]
Format settings                          : CABAC / 5 Ref Frames
Format settings, CABAC                   : Yes
Format settings, Reference frames        : 5 frames
Codec ID                                 : V_MPEG4/ISO/AVC
Duration                                 : 2 h 5 min
Bit rate                                 : 1 404 kb/s
Width                                    : 1 920 pixels
Height                                   : 800 pixels
Display aspect ratio                     : 2.40:1
Frame rate mode                          : Constant
Frame rate                               : 23.976 (24000/1001) FPS
Color space                              : YUV
Chroma subsampling                       : 4:2:0
Bit depth                                : 8 bits
Scan type                                : Progressive
Bits/(Pixel*Frame)                       : 0.038
Stream size                              : 1.23 GiB (58%)
Title                                    : 1080P - Filmbol.org
Writing library                          : x264 core 120 r2164 da19765
Encoding settings                        : cabac=1 / ref=5 / deblock=1:-2:-1 / analyse=0x3:0x133 / me=umh / subme=9 / psy=1 / psy_rd=1.00:0.15 / mixed_ref=1 / me_range=16 / chroma_me=1 / trellis=2 / 8x8dct=1 / cqm=0 / deadzone=21,11 / fast_pskip=1 / chroma_qp_offset=-3 / threads=6 / sliced_threads=0 / nr=0 / decimate=1 / interlaced=0 / bluray_compat=0 / constrained_intra=0 / bframes=3 / b_pyramid=2 / b_adapt=2 / b_bias=0 / direct=3 / weightb=1 / open_gop=0 / weightp=2 / keyint=240 / keyint_min=23 / scenecut=40 / intra_refresh=0 / rc_lookahead=60 / rc=2pass / mbtree=1 / bitrate=1404 / ratetol=1.0 / qcomp=0.60 / qpmin=10 / qpmax=51 / qpstep=4 / cplxblur=20.0 / qblur=0.5 / ip_ratio=1.40 / aq=1:1.00
Default                                  : Yes
Forced                                   : No

Audio #1
ID                                       : 2
Format                                   : AC-3
Format/Info                              : Audio Coding 3
Commercial name                          : Dolby Digital
Codec ID                                 : A_AC3
Duration                                 : 2 h 5 min
Bit rate mode                            : Constant
Bit rate                                 : 640 kb/s
Channel(s)                               : 6 channels
Channel layout                           : L R C LFE Ls Rs
Sampling rate                            : 48.0 kHz
Frame rate                               : 31.250 FPS (1536 SPF)
Compression mode                         : Lossy
Stream size                              : 575 MiB (26%)
Title                                    : Türkçe - Filmbol.org
Language                                 : Turkish
Service kind                             : Complete Main
Default                                  : Yes
Forced                                   : No

Audio #2
ID                                       : 3
Format                                   : AC-3
Format/Info                              : Audio Coding 3
Commercial name                          : Dolby Digital
Codec ID                                 : A_AC3
Duration                                 : 2 h 5 min
Bit rate mode                            : Constant
Bit rate                                 : 384 kb/s
Channel(s)                               : 6 channels
Channel layout                           : L R C LFE Ls Rs
Sampling rate                            : 48.0 kHz
Frame rate                               : 31.250 FPS (1536 SPF)
Compression mode                         : Lossy
Stream size                              : 345 MiB (16%)
Title                                    : Orjinal Dil - Filmbol.org
Language                                 : English
Service kind                             : Complete Main
Default                                  : No
Forced                                   : No

Text
ID                                       : 4
Format                                   : UTF-8
Codec ID                                 : S_TEXT/UTF8
Codec ID/Info                            : UTF-8 Plain Text
Duration                                 : 2 h 0 min
Bit rate                                 : 66 b/s
Count of elements                        : 1288
Stream size                              : 59.0 KiB (0%)
Title                                    : Türkçe - Filmbol.org
Language                                 : Turkish
Default                                  : No
Forced                                   : No

Film Detayları


 Tetikçi

 Tetikçi

 Tetikçi


Film Fragmanı


Film Detayları



Zip Şifresi: filmbol.org Aşağıdaki butona tıklayarak kopyalabilirsiniz.


Uptobox ile indir

1Fichier ile indir

1Fichier'den İndiremiyor musun? Tıklayın!





Filmbol Cloud

Bunun için üzgünüz ancak, bu linke sadece premium üyeler erişebilir.




WWW
Şuan Online!
Şuan Online!
o.boran Yeni Üye
*
Üye
  • Konular0
  • Mesajlar18
  • Rep puanı 0
İlk bu film den başlayalım bakalım... Smile
Şuan Online!
Şuan Online!
TheSteeL Chief Executive Officer
******
CEO
(24-07-2021, Saat: 16:25)o.boran Adlı Kullanıcıdan Alıntı: İlk bu film den başlayalım bakalım... Smile
İyi Seyirler


Hızlı Menü: