Filmbol Forum Film İndir BRRip XviD v Tetikçi (Shooter) - 2007 - TR - BRRip XviD | tt0822854
Bildirimi Kapat
Merhaba , site giderlerini bir nebze olsun karşılamak adına link kısaltma servisleri kullanmaya başladık. İndirme linkleri sizi ouo.io adresinde yönlendirecek, 3 saniye geçtikten sonra Get Link butonuna tıklayarak linke ulaşacaksınız. Premium üyeler bu durumdan etkilenmeyecektir.


Premium Üyelik Al

Tetikçi (Shooter) - 2007 - TR - BRRip XviD | tt0822854
TheSteeL
Tetikçi (Shooter) - 2007 - TR - BRRip XviD | tt0822854
1
83
  • Derecelendirme: 0/5 - 0 oy
  • 1
  • 2
  • 3
  • 4
  • 5
Konuyu Okuyanlar:1 Ziyaretçi
Şuan Online!
Filmin Yayınlanma Tarihi: 2007 
Şuan Online!
TheSteeL Chief Executive Officer
******
CEO


 Tetikçi



Mark Wahlberg, hayatını bir keskin nişancı olarak geçirmiş ve sonunda bu işten bıkarak bırakmış emekli bir askerdir. Keskin nişancı olmak onun hayatında olumlu şeyler bıraksa da ağırlıklı olarak olumsuz etki yaratmıştır. Bu yüzden net bir şekilde emeklilik kararı alarak işi net olarak bırakmıştır. Kalan hayatını sıradan bir biçimde ve kendisine vakit ayırarak geçirmek isteyen Mark, güzel bir evde sıradan bir hayat sürmeye başlar. Fakat bir süre sonra ondan yardım istenir. Hiç kimsenin beceremeyeceği şekilde önemli bir görev verdiklerinde Mark, zoru sevdiğinden kabul eder. Fakat işin içine girince hiç anlattıkları gibi olmadığını anlar. Detaylara indikten sonra Mark'a verilen görev aslında ABD devletinin seçilmiş başkanına suikast yapma görevi olduğu anlaşılır. Mark tabii ki bu işten vazgeçmek ister ancak bir anda vazgeçerse kendinin de öldürüleceğinin farkındadır. Bu yüzden farklı bir yol seçerek başkanı korumaya çalışır...

Tetikçi (2007) (Shooter) | tt0822854 Filmi Imdb'den 316500 kişi tarafından oylandı ve 7,2 puan aldı. Bu film için editör puanı %83 olarak belirlendi. İyi Seyirler!

Teknik Detaylar

Kod :
General
Unique ID                                : 317769050276828274493729121793385404673 (0xEF1017CA710CA918D7B02C03738F9901)
Complete name                            : /home/TheSteel/Desktop/4/Tetikci.2007.BRRip.Xvid.TR.Filmbol.avi
Format                                   : Matroska
Format version                           : Version 4
File size                                : 1.14 GiB
Duration                                 : 2 h 5 min
Overall bit rate                         : 1 293 kb/s
Movie name                               : Shooter - Tetikçi - 2007 | Filmbol.org
Encoded date                             : UTC 2021-06-27 08:01:19
Writing application                      : mkvmerge v31.0.0 ('Dolores In A Shoestand') 64-bit
Writing library                          : libebml v1.3.6 + libmatroska v1.4.9
FileExtension_Invalid                    : mkv mk3d mka mks

Video
ID                                       : 1
Format                                   : MPEG-4 Visual
Format profile                           : Advanced [email protected]
Format settings                          : BVOP2
Format settings, BVOP                    : 2
Format settings, QPel                    : No
Format settings, GMC                     : No warppoints
Format settings, Matrix                  : Default (H.263)
Codec ID                                 : V_MS/VFW/FOURCC / DIVX
Codec ID/Info                            : Project Mayo
Codec ID/Hint                            : DivX 4
Duration                                 : 2 h 5 min
Bit rate                                 : 1 099 kb/s
Width                                    : 896 pixels
Height                                   : 370 pixels
Display aspect ratio                     : 2.40:1
Frame rate mode                          : Constant
Frame rate                               : 23.976 (24000/1001) FPS
Color space                              : YUV
Chroma subsampling                       : 4:2:0
Bit depth                                : 8 bits
Scan type                                : Progressive
Compression mode                         : Lossy
Bits/(Pixel*Frame)                       : 0.138
Stream size                              : 988 MiB (85%)
Title                                    : Shooter - Tetikçi - 2007 | Filmbol.org
Writing library                          : XviD 67
Default                                  : Yes
Forced                                   : No

Audio
ID                                       : 2
Format                                   : MPEG Audio
Format version                           : Version 1
Format profile                           : Layer 3
Codec ID                                 : A_MPEG/L3
Codec ID/Hint                            : MP3
Duration                                 : 2 h 5 min
Bit rate mode                            : Constant
Bit rate                                 : 192 kb/s
Channel(s)                               : 2 channels
Sampling rate                            : 48.0 kHz
Frame rate                               : 41.667 FPS (1152 SPF)
Compression mode                         : Lossy
Stream size                              : 173 MiB (15%)
Title                                    : Shooter - Tetikçi - 2007 | Filmbol.org
Writing library                          : LAME(RIß\¥*Œ“D|ˆs£E
Default                                  : Yes
Forced                                   : No

Film Detayları


 Tetikçi

 Tetikçi

 Tetikçi


Film Fragmanı


Film Detayları



Zip Şifresi: filmbol.org Aşağıdaki butona tıklayarak kopyalabilirsiniz.



Uptobox ile indir

1Fichier ile indir

1Fichier'den İndiremiyor musun? Tıklayın!





Filmbol Cloud

Bunun için üzgünüz ancak, bu linke sadece premium üyeler erişebilir.




WWW
Şuan Offine!
Şuan Offine!
Furkan61 Cezalı Üye
  • Konular0
  • Mesajlar329
Teşekkürler broserbros?


Hızlı Menü: