Filmbol Forum Film İndir 1080P v Son Vardiya (The Last Shift) - 2020 - TR+ORG - 1080P | tt10661180
Bildirimi Kapat
Merhaba , site giderlerini bir nebze olsun karşılamak adına link kısaltma servisleri kullanmaya başladık. İndirme linkleri sizi ouo.io adresinde yönlendirecek, 3 saniye geçtikten sonra Get Link butonuna tıklayarak linke ulaşacaksınız. Premium üyeler bu durumdan etkilenmeyecektir.


Premium Üyelik Al

Son Vardiya (The Last Shift) - 2020 - TR+ORG - 1080P | tt10661180
TheSteeL
Son Vardiya (The Last Shift) - 2020 - TR+ORG - 1080P | tt10661180
0
64
  • Derecelendirme: 0/5 - 0 oy
  • 1
  • 2
  • 3
  • 4
  • 5
Konuyu Okuyanlar:1 Ziyaretçi
Şuan Online!
Filmin Yayınlanma Tarihi: 2020 
Şuan Online!
TheSteeL Chief Executive Officer
******
CEO


 Son Vardiya



Bir fast food dükkanında çalışan Stanley, hayatının doğru yönde olmadığını, bu hayatı hak etmediğini düşünüyor. Bu yüzden 38 yıldır çalıştığı bu dükkandan ayrılarak kendisinin hak ettiği tarzda bir iş kurmaya karar verir. Ancak patronlarının son bir isteği vardır. Yerine gelecek olan genç elemanı eğiterek ona kısa süreliğine ders vermesi ve ona işi öğretmesini rica ederler. Stanley saygı duyduğu bu insanların teklifini kabul ederek bu genç adama ders vermeye başlar. Bu genç adam ile bir süre vakit geçirme şansı bulan Stanley onunla sohbet etmeye başlar. Çocuğun hayat hikayesini duyunca ise kendini küçük görme durumu ortadan kalkar ve Stanley başta düşündüğünden farklı olarak hayatını başka bir yöne doğru değiştirmeye başlar...

Son Vardiya (2020) | tt10661180 Filmi Imdb'den 1500 kişi tarafından oylandı ve 5,6 puan aldı. Bu film için editör puanı %61 olarak belirlendi. İyi Seyirler!

Teknik Detaylar

Kod :
General
Unique ID                                : 237194915745891834583084212644627992327 (0xB272143F2F9E98D288F36CAAFDA1CF07)
Complete name                            : /home/TheSteel/Desktop/2/Son.Vardiya.2020.1080p.WEB-DL.x264.TR.ENG.Filmbol.mkv
Format                                   : Matroska
Format version                           : Version 4
File size                                : 1.68 GiB
Duration                                 : 1 h 30 min
Overall bit rate                         : 2 655 kb/s
Movie name                               : The Last Shift - Son Vardiya - 2020 | Filmbol.org
Encoded date                             : UTC 2021-06-24 20:56:35
Writing application                      : mkvmerge v31.0.0 ('Dolores In A Shoestand') 64-bit
Writing library                          : libebml v1.3.6 + libmatroska v1.4.9

Video
ID                                       : 1
Format                                   : AVC
Format/Info                              : Advanced Video Codec
Format profile                           : [email protected]
Format settings                          : CABAC / 2 Ref Frames
Format settings, CABAC                   : Yes
Format settings, Reference frames        : 2 frames
Format settings, GOP                     : M=1, N=25
Codec ID                                 : V_MPEG4/ISO/AVC
Duration                                 : 1 h 30 min
Bit rate                                 : 2 268 kb/s
Width                                    : 1 920 pixels
Height                                   : 950 pixels
Display aspect ratio                     : 2.021
Frame rate mode                          : Constant
Frame rate                               : 23.976 (24000/1001) FPS
Color space                              : YUV
Chroma subsampling                       : 4:2:0
Bit depth                                : 8 bits
Scan type                                : Progressive
Bits/(Pixel*Frame)                       : 0.052
Stream size                              : 1.44 GiB (85%)
Title                                    : The Last Shift - Son Vardiya - 2020 | Filmbol.org
Language                                 : English
Default                                  : Yes
Forced                                   : No

Audio #1
ID                                       : 2
Format                                   : AC-3
Format/Info                              : Audio Coding 3
Commercial name                          : Dolby Digital
Codec ID                                 : A_AC3
Duration                                 : 1 h 30 min
Bit rate mode                            : Constant
Bit rate                                 : 192 kb/s
Channel(s)                               : 2 channels
Channel layout                           : L R
Sampling rate                            : 48.0 kHz
Frame rate                               : 31.250 FPS (1536 SPF)
Compression mode                         : Lossy
Stream size                              : 125 MiB (7%)
Title                                    : The Last Shift - Son Vardiya - 2020 | Filmbol.org
Language                                 : Turkish
Service kind                             : Complete Main
Default                                  : Yes
Forced                                   : No

Audio #2
ID                                       : 3
Format                                   : AC-3
Format/Info                              : Audio Coding 3
Commercial name                          : Dolby Digital
Codec ID                                 : A_AC3
Duration                                 : 1 h 30 min
Bit rate mode                            : Constant
Bit rate                                 : 192 kb/s
Channel(s)                               : 2 channels
Channel layout                           : L R
Sampling rate                            : 48.0 kHz
Frame rate                               : 31.250 FPS (1536 SPF)
Compression mode                         : Lossy
Stream size                              : 125 MiB (7%)
Title                                    : The Last Shift - Son Vardiya - 2020 | Filmbol.org
Language                                 : English
Service kind                             : Complete Main
Default                                  : No
Forced                                   : No

Text
ID                                       : 4
Format                                   : UTF-8
Codec ID                                 : S_TEXT/UTF8
Codec ID/Info                            : UTF-8 Plain Text
Duration                                 : 1 h 28 min
Bit rate                                 : 57 b/s
Count of elements                        : 1016
Stream size                              : 37.1 KiB (0%)
Title                                    : The Last Shift - Son Vardiya - 2020 | Filmbol.org
Language                                 : Turkish
Default                                  : No
Forced                                   : No

Film Detayları


 Son Vardiya

 Son Vardiya

 Son Vardiya


Film Fragmanı


Film Detayları



Zip Şifresi: filmbol.org Aşağıdaki butona tıklayarak kopyalabilirsiniz.


Uptobox ile indir

1Fichier ile indir

1Fichier'den İndiremiyor musun? Tıklayın!





Filmbol Cloud

Bunun için üzgünüz ancak, bu linke sadece premium üyeler erişebilir.




WWW


Hızlı Menü: