Filmbol Forum Film İndir BRRip XviD v Son Vardiya (The Last Shift) - 2020 - TR - BRRip XviD | tt10661180
Bildirimi Kapat
Merhaba , site giderlerini bir nebze olsun karşılamak adına link kısaltma servisleri kullanmaya başladık. İndirme linkleri sizi ouo.io adresinde yönlendirecek, 3 saniye geçtikten sonra Get Link butonuna tıklayarak linke ulaşacaksınız. Premium üyeler bu durumdan etkilenmeyecektir.


Premium Üyelik Al

Son Vardiya (The Last Shift) - 2020 - TR - BRRip XviD | tt10661180
TheSteeL
Son Vardiya (The Last Shift) - 2020 - TR - BRRip XviD | tt10661180
0
50
  • Derecelendirme: 0/5 - 0 oy
  • 1
  • 2
  • 3
  • 4
  • 5
Konuyu Okuyanlar:3 Ziyaretçi
Şuan Online!
Filmin Yayınlanma Tarihi: 2020 
Şuan Online!
TheSteeL Chief Executive Officer
******
CEO


 Son Vardiya



Bir fast food dükkanında çalışan Stanley, hayatının doğru yönde olmadığını, bu hayatı hak etmediğini düşünüyor. Bu yüzden 38 yıldır çalıştığı bu dükkandan ayrılarak kendisinin hak ettiği tarzda bir iş kurmaya karar verir. Ancak patronlarının son bir isteği vardır. Yerine gelecek olan genç elemanı eğiterek ona kısa süreliğine ders vermesi ve ona işi öğretmesini rica ederler. Stanley saygı duyduğu bu insanların teklifini kabul ederek bu genç adama ders vermeye başlar. Bu genç adam ile bir süre vakit geçirme şansı bulan Stanley onunla sohbet etmeye başlar. Çocuğun hayat hikayesini duyunca ise kendini küçük görme durumu ortadan kalkar ve Stanley başta düşündüğünden farklı olarak hayatını başka bir yöne doğru değiştirmeye başlar...

Son Vardiya (2020) (The Last Shift) | tt10661180 Filmi Imdb'den 1500 kişi tarafından oylandı ve 5,6 puan aldı. Bu film için editör puanı %61 olarak belirlendi. İyi Seyirler!

Teknik Detaylar

Kod :
General
Unique ID                                : 327259936469006842507871970472550842372 (0xF633F89B9BB20031EE0A254FEA51C004)
Complete name                            : /home/TheSteel/Desktop/2/Son.Vardiya.2020.HDRip.XViD.TR.Filmbol.avi
Format                                   : Matroska
Format version                           : Version 4
File size                                : 647 MiB
Duration                                 : 1 h 30 min
Overall bit rate                         : 997 kb/s
Movie name                               : The Last Shift - Son Vardiya - 2020 | Filmbol.org
Encoded date                             : UTC 2021-06-24 20:53:41
Writing application                      : mkvmerge v31.0.0 ('Dolores In A Shoestand') 64-bit
Writing library                          : libebml v1.3.6 + libmatroska v1.4.9
FileExtension_Invalid                    : mkv mk3d mka mks

Video
ID                                       : 1
Format                                   : MPEG-4 Visual
Format profile                           : Advanced [email protected]
Format settings                          : BVOP1
Format settings, BVOP                    : 1
Format settings, QPel                    : No
Format settings, GMC                     : No warppoints
Format settings, Matrix                  : Default (MPEG)
Muxing mode                              : Packed bitstream
Codec ID                                 : V_MS/VFW/FOURCC / XVID
Codec ID/Hint                            : XviD
Duration                                 : 1 h 30 min
Bit rate                                 : 867 kb/s
Width                                    : 720 pixels
Height                                   : 356 pixels
Display aspect ratio                     : 2.022
Frame rate mode                          : Constant
Frame rate                               : 23.976 (24000/1001) FPS
Original frame rate                      : 23.976 (23976/1000) FPS
Color space                              : YUV
Chroma subsampling                       : 4:2:0
Bit depth                                : 8 bits
Scan type                                : Progressive
Compression mode                         : Lossy
Bits/(Pixel*Frame)                       : 0.141
Stream size                              : 563 MiB (87%)
Title                                    : The Last Shift - Son Vardiya - 2020 | Filmbol.org
Writing library                          : XviD 64
Default                                  : Yes
Forced                                   : No

Audio
ID                                       : 2
Format                                   : MPEG Audio
Format version                           : Version 1
Format profile                           : Layer 3
Format settings                          : Joint stereo / MS Stereo
Codec ID                                 : A_MPEG/L3
Codec ID/Hint                            : MP3
Duration                                 : 1 h 30 min
Bit rate mode                            : Constant
Bit rate                                 : 128 kb/s
Channel(s)                               : 2 channels
Sampling rate                            : 48.0 kHz
Frame rate                               : 41.667 FPS (1152 SPF)
Compression mode                         : Lossy
Stream size                              : 83.1 MiB (13%)
Title                                    : The Last Shift - Son Vardiya - 2020 | Filmbol.org
Writing library                          : LAME3.99.5
Default                                  : Yes
Forced                                   : No

Film Detayları


 Son Vardiya

 Son Vardiya

 Son Vardiya


Film Fragmanı


Film Detayları



Zip Şifresi: filmbol.org Aşağıdaki butona tıklayarak kopyalabilirsiniz.



Uptobox ile indir

1Fichier ile indir

1Fichier'den İndiremiyor musun? Tıklayın!





Filmbol Cloud

Bunun için üzgünüz ancak, bu linke sadece premium üyeler erişebilir.




WWW


Hızlı Menü: