Filmbol Forum Film İndir 1080P v Fırtınalı Bir Gece (Grand Isle) - 2019 - TR+ORG - 1080P | tt8380776
Bildirimi Kapat
Merhaba , site giderlerini bir nebze olsun karşılamak adına link kısaltma servisleri kullanmaya başladık. İndirme linkleri sizi ouo.io adresinde yönlendirecek, 3 saniye geçtikten sonra Get Link butonuna tıklayarak linke ulaşacaksınız. Premium üyeler bu durumdan etkilenmeyecektir.


Premium Üyelik Al

Fırtınalı Bir Gece (Grand Isle) - 2019 - TR+ORG - 1080P | tt8380776
TheSteeL
Fırtınalı Bir Gece (Grand Isle) - 2019 - TR+ORG - 1080P | tt8380776
0
68
  • Derecelendirme: 0/5 - 0 oy
  • 1
  • 2
  • 3
  • 4
  • 5
Konuyu Okuyanlar:1 Ziyaretçi
Şuan Online!
Filmin Yayınlanma Tarihi: 2019 
Şuan Online!
TheSteeL Chief Executive Officer
******
CEO


 Fırtınalı Bir Gece



Buddy genç ancak çok istekli bir delikanlıdır. Para kazanmak için ne iş olsa yapar. Buddy kendine güzel bir iş bulmuştur. Devasa bir malikane de oluşabilecek yada oluşan hasarları tamir ederek malikaneyi onarma görevini üstlenmiştir. Hem güzel bir yerde görevini yapıyor hemde güzel paralar kazanıyordu. Yine işini yaptığı bir günün sonuna doğru feci bir fırtına başlar. Evine giremeyeceğini anlayan ev sahipleri nazikçe bugünü burada geçirebileceğin söyler. Teklifi kabul eden Buddy, sabaha kadar burada kalıp sonra evine, bir günlük tatile gidecektir. Fakat işler beklediği gibi olmaz. Malikanede geçirdiği gecenin sabahına doğru bir cinayet işlenir ve Buddy baş şüpheli olarak polis tarafından sorgulamaya başlar...

Fırtınalı Bir Gece (2019) | tt8380776 Filmi Imdb'den 3500 kişi tarafından oylandı ve 4,6 puan aldı. Bu film için editör puanı %55 olarak belirlendi. İyi Seyirler!

Teknik Detaylar

Kod :
General
Unique ID                                : 150000172401727539674844242747751478043 (0x70D8FB7C8BD0BE2187B921E76B15331B)
Complete name                            : /home/TheSteel/Desktop/1/Fırtınalı.Bir.Gece.2019.1080p.Bluray.x264.TR.ENG.Filmbol.mkv
Format                                   : Matroska
Format version                           : Version 4
File size                                : 1.83 GiB
Duration                                 : 1 h 37 min
Overall bit rate                         : 2 696 kb/s
Movie name                               : Grand Isle - Fırtınalı Bir Gece - 2019 | Filmbol.org
Encoded date                             : UTC 2021-06-16 12:04:04
Writing application                      : mkvmerge v31.0.0 ('Dolores In A Shoestand') 64-bit
Writing library                          : libebml v1.3.6 + libmatroska v1.4.9

Video
ID                                       : 1
Format                                   : AVC
Format/Info                              : Advanced Video Codec
Format profile                           : [email protected]
Format settings                          : CABAC / 2 Ref Frames
Format settings, CABAC                   : Yes
Format settings, Reference frames        : 2 frames
Codec ID                                 : V_MPEG4/ISO/AVC
Duration                                 : 1 h 37 min
Bit rate                                 : 2 309 kb/s
Width                                    : 1 920 pixels
Height                                   : 872 pixels
Display aspect ratio                     : 2.2:1
Frame rate mode                          : Constant
Frame rate                               : 23.976 (24000/1001) FPS
Color space                              : YUV
Chroma subsampling                       : 4:2:0
Bit depth                                : 8 bits
Scan type                                : Progressive
Bits/(Pixel*Frame)                       : 0.058
Stream size                              : 1.57 GiB (86%)
Title                                    : Grand Isle - Fırtınalı Bir Gece - 2019 | Filmbol.org
Language                                 : English
Default                                  : Yes
Forced                                   : No

Audio #1
ID                                       : 2
Format                                   : AC-3
Format/Info                              : Audio Coding 3
Commercial name                          : Dolby Digital
Codec ID                                 : A_AC3
Duration                                 : 1 h 37 min
Bit rate mode                            : Constant
Bit rate                                 : 192 kb/s
Channel(s)                               : 2 channels
Channel layout                           : L R
Sampling rate                            : 48.0 kHz
Frame rate                               : 31.250 FPS (1536 SPF)
Compression mode                         : Lossy
Stream size                              : 134 MiB (7%)
Title                                    : Grand Isle - Fırtınalı Bir Gece - 2019 | Filmbol.org
Language                                 : Turkish
Service kind                             : Complete Main
Default                                  : Yes
Forced                                   : No

Audio #2
ID                                       : 3
Format                                   : AC-3
Format/Info                              : Audio Coding 3
Commercial name                          : Dolby Digital
Codec ID                                 : A_AC3
Duration                                 : 1 h 37 min
Bit rate mode                            : Constant
Bit rate                                 : 192 kb/s
Channel(s)                               : 2 channels
Channel layout                           : L R
Sampling rate                            : 48.0 kHz
Frame rate                               : 31.250 FPS (1536 SPF)
Compression mode                         : Lossy
Stream size                              : 134 MiB (7%)
Title                                    : Grand Isle - Fırtınalı Bir Gece - 2019 | Filmbol.org
Language                                 : English
Service kind                             : Complete Main
Default                                  : No
Forced                                   : No

Text
ID                                       : 4
Format                                   : UTF-8
Codec ID                                 : S_TEXT/UTF8
Codec ID/Info                            : UTF-8 Plain Text
Duration                                 : 1 h 32 min
Bit rate                                 : 45 b/s
Count of elements                        : 1054
Stream size                              : 31.0 KiB (0%)
Title                                    : Grand Isle - Fırtınalı Bir Gece - 2019 | Filmbol.org
Language                                 : Turkish
Default                                  : No
Forced                                   : No

Film Detayları


 Fırtınalı Bir Gece

 Fırtınalı Bir Gece

 Fırtınalı Bir Gece


Film Fragmanı


Film Detayları



Zip Şifresi: filmbol.org Aşağıdaki butona tıklayarak kopyalabilirsiniz.


Uptobox ile indir

1Fichier ile indir

1Fichier'den İndiremiyor musun? Tıklayın!





Filmbol Cloud

Bunun için üzgünüz ancak, bu linke sadece premium üyeler erişebilir.




WWW


Hızlı Menü: