Filmbol Forum Film İndir BRRip XviD v Fırtınalı Bir Gece (Grand Isle) - 2019 - TR - BRRip XviD | tt8380776
Bildirimi Kapat
Merhaba , site giderlerini bir nebze olsun karşılamak adına link kısaltma servisleri kullanmaya başladık. İndirme linkleri sizi ouo.io adresinde yönlendirecek, 3 saniye geçtikten sonra Get Link butonuna tıklayarak linke ulaşacaksınız. Premium üyeler bu durumdan etkilenmeyecektir.


Premium Üyelik Al

Fırtınalı Bir Gece (Grand Isle) - 2019 - TR - BRRip XviD | tt8380776
TheSteeL
Fırtınalı Bir Gece (Grand Isle) - 2019 - TR - BRRip XviD | tt8380776
0
38
  • Derecelendirme: 0/5 - 0 oy
  • 1
  • 2
  • 3
  • 4
  • 5
Konuyu Okuyanlar:2 Ziyaretçi
Şuan Online!
Filmin Yayınlanma Tarihi: 2019 
Şuan Online!
TheSteeL Chief Executive Officer
******
CEO


 Fırtınalı Bir Gece



Buddy genç ancak çok istekli bir delikanlıdır. Para kazanmak için ne iş olsa yapar. Buddy kendine güzel bir iş bulmuştur. Devasa bir malikane de oluşabilecek yada oluşan hasarları tamir ederek malikaneyi onarma görevini üstlenmiştir. Hem güzel bir yerde görevini yapıyor hemde güzel paralar kazanıyordu. Yine işini yaptığı bir günün sonuna doğru feci bir fırtına başlar. Evine giremeyeceğini anlayan ev sahipleri nazikçe bugünü burada geçirebileceğin söyler. Teklifi kabul eden Buddy, sabaha kadar burada kalıp sonra evine, bir günlük tatile gidecektir. Fakat işler beklediği gibi olmaz. Malikanede geçirdiği gecenin sabahına doğru bir cinayet işlenir ve Buddy baş şüpheli olarak polis tarafından sorgulamaya başlar...

Fırtınalı Bir Gece (2019) (Grand Isle) | tt8380776 Filmi Imdb'den 3500 kişi tarafından oylandı ve 4,6 puan aldı. Bu film için editör puanı %55 olarak belirlendi. İyi Seyirler!

Teknik Detaylar

Kod :
General
Unique ID                                : 108534044747691874036348739246295623624 (0x51A6E58C97657AF922E92C4E520027C8)
Complete name                            : /home/TheSteel/Desktop/1/Fırtınalı.Bir.Gece.2019.BDRip.XViD.TR.Filmbol.avi
Format                                   : Matroska
Format version                           : Version 4
File size                                : 843 MiB
Duration                                 : 1 h 37 min
Overall bit rate                         : 1 211 kb/s
Movie name                               : Grand Isle - Fırtınalı Bir Gece - 2019 | Filmbol.org
Encoded date                             : UTC 2021-06-16 12:02:34
Writing application                      : mkvmerge v31.0.0 ('Dolores In A Shoestand') 64-bit
Writing library                          : libebml v1.3.6 + libmatroska v1.4.9
FileExtension_Invalid                    : mkv mk3d mka mks

Video
ID                                       : 1
Format                                   : MPEG-4 Visual
Format profile                           : Advanced [email protected]
Format settings                          : BVOP2
Format settings, BVOP                    : 2
Format settings, QPel                    : No
Format settings, GMC                     : No warppoints
Format settings, Matrix                  : Default (MPEG)
Muxing mode                              : Packed bitstream
Codec ID                                 : V_MS/VFW/FOURCC / XVID
Codec ID/Hint                            : XviD
Duration                                 : 1 h 37 min
Bit rate                                 : 1 081 kb/s
Width                                    : 720 pixels
Height                                   : 328 pixels
Display aspect ratio                     : 2.2:1
Frame rate mode                          : Constant
Frame rate                               : 23.976 (24000/1001) FPS
Original frame rate                      : 23.976 (23976/1000) FPS
Color space                              : YUV
Chroma subsampling                       : 4:2:0
Bit depth                                : 8 bits
Scan type                                : Progressive
Compression mode                         : Lossy
Bits/(Pixel*Frame)                       : 0.191
Stream size                              : 752 MiB (89%)
Title                                    : Grand Isle - Fırtınalı Bir Gece - 2019 | Filmbol.org
Writing library                          : XviD 64
Default                                  : Yes
Forced                                   : No

Audio
ID                                       : 2
Format                                   : MPEG Audio
Format version                           : Version 1
Format profile                           : Layer 3
Format settings                          : Joint stereo / MS Stereo
Codec ID                                 : A_MPEG/L3
Codec ID/Hint                            : MP3
Duration                                 : 1 h 37 min
Bit rate mode                            : Constant
Bit rate                                 : 128 kb/s
Channel(s)                               : 2 channels
Sampling rate                            : 48.0 kHz
Frame rate                               : 41.667 FPS (1152 SPF)
Compression mode                         : Lossy
Stream size                              : 89.1 MiB (11%)
Title                                    : Grand Isle - Fırtınalı Bir Gece - 2019 | Filmbol.org
Writing library                          : LAME3.99.5
Default                                  : Yes
Forced                                   : No

Film Detayları


 Fırtınalı Bir Gece

 Fırtınalı Bir Gece

 Fırtınalı Bir Gece


Film Fragmanı


Film Detayları



Zip Şifresi: filmbol.org Aşağıdaki butona tıklayarak kopyalabilirsiniz.



Uptobox ile indir

1Fichier ile indir

1Fichier'den İndiremiyor musun? Tıklayın!





Filmbol Cloud

Bunun için üzgünüz ancak, bu linke sadece premium üyeler erişebilir.




WWW


Hızlı Menü: