Filmbol Forum Film İndir FHD - FULL HD v Aile Hükümeti - 2020 - TR+ORG - FHD - x264 | tt12579868
Bildirimi Kapat
Merhaba , site giderlerini bir nebze olsun karşılamak adına link kısaltma servisleri kullanmaya başladık. İndirme linkleri sizi ouo.io adresinde yönlendirecek, 3 saniye geçtikten sonra Get Link butonuna tıklayarak linke ulaşacaksınız. Premium üyeler bu durumdan etkilenmeyecektir.


Premium Üyelik Al

Aile Hükümeti - 2020 - TR+ORG - FHD - x264 | tt12579868
TheSteeL
Aile Hükümeti - 2020 - TR+ORG - FHD - x264 | tt12579868
0
35
  • Derecelendirme: 0/5 - 0 oy
  • 1
  • 2
  • 3
  • 4
  • 5
Konuyu Okuyanlar:2 Ziyaretçi
Şuan Online!
Filmin Yayınlanma Tarihi: 2020 
Şuan Online!
TheSteeL Chief Executive Officer
******
CEO


 Aile Hükümeti



Salih Elaldı isminde bir köye atanan çok genç bir öğretmendir. Onun bu köyden beklentisi yoktur ve gelme amacı görevini tamamlamak ve tekrar şehre dönebilmektir. Fakat işler planladığı gibi gitmez. Burada genç bir kıza âşık olan Salih için bu dönülmez bir yoldur. Üstelik bu aşkı karşılıksız kalmasa da buradaki ailelerin sık sık akraba evliliği yapmasından dolayı âşık olduğu kız olan Zeynep ile evlenmesi çok düşük bir ihtimal olarak değerlendirilir. Fakat Salih isteklidir. Zeynep ile evlenebilmek için bakanlığa bir dilekçe yazar ve buradaki köylülerin sık sık akraba evliliği yaptığını ve bu evliliklerin doğacak çocuklar için büyük bir risk olduğunu anlatır. Bakanlık zaten akraba evliliğine karşı olduğundan olaya hemen el atar. Fakat araya devlet girince Salih geç de olsa bir şey fark eder. Devletin hedefi akraba evliliğini bitirmek olduğundan kişi ayrımı yapmaksızın herkesi akraba evliliğinden uzaklaştırır ve sevenler birbirine kavuşamamaya başlar. Salih sırf kendi çıkarı için köylülere zarar vermeye başladığından bu durumu düzeltmek için tekrar kolları sıvar...

Aile Hükümeti (2020) | tt12579868 Filmi Imdb'den 100 kişi tarafından oylandı ve 3,5 puan aldı. Bu film için editör puanı %45 olarak belirlendi. İyi Seyirler!

Teknik Detaylar

Kod :
General
Unique ID                                : 265841038551587665705740326707226268979 (0xC7FF1F251133549039CCAB1E0CF8D533)
Complete name                            : /home/TheSteel/Desktop/1/Aile.Hükümeti.2020.FHD.WEB-DL.x264.TR.Filmbol.mkv
Format                                   : Matroska
Format version                           : Version 4
File size                                : 4.37 GiB
Duration                                 : 1 h 42 min
Overall bit rate                         : 6 103 kb/s
Movie name                               : Aile Hükümeti - 2020 | Filmbol.org
Encoded date                             : UTC 2021-06-14 16:48:59
Writing application                      : mkvmerge v31.0.0 ('Dolores In A Shoestand') 64-bit
Writing library                          : libebml v1.3.6 + libmatroska v1.4.9

Video
ID                                       : 1
Format                                   : AVC
Format/Info                              : Advanced Video Codec
Format profile                           : [email protected]
Format settings                          : CABAC / 4 Ref Frames
Format settings, CABAC                   : Yes
Format settings, Reference frames        : 4 frames
Codec ID                                 : V_MPEG4/ISO/AVC
Duration                                 : 1 h 42 min
Bit rate                                 : 5 461 kb/s
Width                                    : 1 920 pixels
Height                                   : 1 080 pixels
Display aspect ratio                     : 16:9
Frame rate mode                          : Constant
Frame rate                               : 25.000 FPS
Color space                              : YUV
Chroma subsampling                       : 4:2:0
Bit depth                                : 8 bits
Scan type                                : Progressive
Bits/(Pixel*Frame)                       : 0.105
Stream size                              : 3.91 GiB (89%)
Title                                    : Aile Hükümeti - 2020 | Filmbol.org
Writing library                          : x264 core 157 r2932 303c484
Encoding settings                        : cabac=1 / ref=3 / deblock=1:0:0 / analyse=0x3:0x113 / me=hex / subme=7 / psy=1 / psy_rd=1.00:0.00 / mixed_ref=1 / me_range=16 / chroma_me=1 / trellis=1 / 8x8dct=1 / cqm=0 / deadzone=21,11 / fast_pskip=1 / chroma_qp_offset=-2 / threads=24 / lookahead_threads=4 / sliced_threads=0 / nr=0 / decimate=1 / interlaced=0 / bluray_compat=0 / constrained_intra=0 / bframes=3 / b_pyramid=2 / b_adapt=1 / b_bias=0 / direct=1 / weightb=1 / open_gop=0 / weightp=2 / keyint=250 / keyint_min=25 / scenecut=40 / intra_refresh=0 / rc_lookahead=40 / rc=crf / mbtree=1 / crf=19.0 / qcomp=0.60 / qpmin=0 / qpmax=69 / qpstep=4 / ip_ratio=1.40 / aq=1:1.00
Default                                  : Yes
Forced                                   : No

Audio
ID                                       : 2
Format                                   : AC-3
Format/Info                              : Audio Coding 3
Commercial name                          : Dolby Digital
Codec ID                                 : A_AC3
Duration                                 : 1 h 42 min
Bit rate mode                            : Constant
Bit rate                                 : 640 kb/s
Channel(s)                               : 6 channels
Channel layout                           : L R C LFE Ls Rs
Sampling rate                            : 48.0 kHz
Frame rate                               : 31.250 FPS (1536 SPF)
Compression mode                         : Lossy
Stream size                              : 469 MiB (10%)
Title                                    : Aile Hükümeti - 2020 | Filmbol.org
Language                                 : Turkish
Service kind                             : Complete Main
Default                                  : Yes
Forced                                   : No

Film Detayları


 Aile Hükümeti

 Aile Hükümeti

 Aile Hükümeti


Film Fragmanı


Film Detayları



Zip Şifresi: filmbol.org Aşağıdaki butona tıklayarak kopyalabilirsiniz.





Filmbol Cloud

Bunun için üzgünüz ancak, bu linke sadece premium üyeler erişebilir.




WWW


Hızlı Menü: