Filmbol Forum Film İndir BRRip XviD v Aile Hükümeti - 2020 - TR - BRRip XviD | tt12579868
Bildirimi Kapat
Merhaba , site giderlerini bir nebze olsun karşılamak adına link kısaltma servisleri kullanmaya başladık. İndirme linkleri sizi ouo.io adresinde yönlendirecek, 3 saniye geçtikten sonra Get Link butonuna tıklayarak linke ulaşacaksınız. Premium üyeler bu durumdan etkilenmeyecektir.


Premium Üyelik Al

Aile Hükümeti - 2020 - TR - BRRip XviD | tt12579868
TheSteeL
Aile Hükümeti - 2020 - TR - BRRip XviD | tt12579868
0
23
  • Derecelendirme: 0/5 - 0 oy
  • 1
  • 2
  • 3
  • 4
  • 5
Konuyu Okuyanlar:2 Ziyaretçi
Şuan Online!
Filmin Yayınlanma Tarihi: 2020 
Şuan Online!
TheSteeL Chief Executive Officer
******
CEO


 Aile Hükümeti



Salih Elaldı isminde bir köye atanan çok genç bir öğretmendir. Onun bu köyden beklentisi yoktur ve gelme amacı görevini tamamlamak ve tekrar şehre dönebilmektir. Fakat işler planladığı gibi gitmez. Burada genç bir kıza âşık olan Salih için bu dönülmez bir yoldur. Üstelik bu aşkı karşılıksız kalmasa da buradaki ailelerin sık sık akraba evliliği yapmasından dolayı âşık olduğu kız olan Zeynep ile evlenmesi çok düşük bir ihtimal olarak değerlendirilir. Fakat Salih isteklidir. Zeynep ile evlenebilmek için bakanlığa bir dilekçe yazar ve buradaki köylülerin sık sık akraba evliliği yaptığını ve bu evliliklerin doğacak çocuklar için büyük bir risk olduğunu anlatır. Bakanlık zaten akraba evliliğine karşı olduğundan olaya hemen el atar. Fakat araya devlet girince Salih geç de olsa bir şey fark eder. Devletin hedefi akraba evliliğini bitirmek olduğundan kişi ayrımı yapmaksızın herkesi akraba evliliğinden uzaklaştırır ve sevenler birbirine kavuşamamaya başlar. Salih sırf kendi çıkarı için köylülere zarar vermeye başladığından bu durumu düzeltmek için tekrar kolları sıvar...

Aile Hükümeti (2020) | tt12579868 Filmi Imdb'den 100 kişi tarafından oylandı ve 3,5 puan aldı. Bu film için editör puanı %45 olarak belirlendi. İyi Seyirler!

Teknik Detaylar

Kod :
General
Unique ID                                : 74658006253709987893681404562690544904 (0x382A9BE6532399422344F888D3341508)
Complete name                            : /home/TheSteel/Desktop/1/Aile.Hükümeti.2020.HDRip.XviD.TR.Filmbol.avi
Format                                   : Matroska
Format version                           : Version 4
File size                                : 1.14 GiB
Duration                                 : 1 h 42 min
Overall bit rate                         : 1 592 kb/s
Movie name                               : Aile Hükümeti - 2020 | Filmbol.org
Encoded date                             : UTC 2021-06-14 16:55:19
Writing application                      : mkvmerge v31.0.0 ('Dolores In A Shoestand') 64-bit
Writing library                          : libebml v1.3.6 + libmatroska v1.4.9
FileExtension_Invalid                    : mkv mk3d mka mks

Video
ID                                       : 1
Format                                   : MPEG-4 Visual
Format profile                           : Advanced [email protected]
Format settings                          : BVOP2
Format settings, BVOP                    : 2
Format settings, QPel                    : No
Format settings, GMC                     : No warppoints
Format settings, Matrix                  : Default (MPEG)
Muxing mode                              : Packed bitstream
Codec ID                                 : V_MS/VFW/FOURCC / XVID
Codec ID/Hint                            : XviD
Duration                                 : 1 h 42 min
Bit rate                                 : 1 462 kb/s
Width                                    : 720 pixels
Height                                   : 404 pixels
Display aspect ratio                     : 16:9
Frame rate mode                          : Constant
Frame rate                               : 25.000 FPS
Color space                              : YUV
Chroma subsampling                       : 4:2:0
Bit depth                                : 8 bits
Scan type                                : Progressive
Compression mode                         : Lossy
Bits/(Pixel*Frame)                       : 0.201
Stream size                              : 1.05 GiB (92%)
Title                                    : Aile Hükümeti - 2020 | Filmbol.org
Writing library                          : XviD 64
Default                                  : Yes
Forced                                   : No

Audio
ID                                       : 2
Format                                   : MPEG Audio
Format version                           : Version 1
Format profile                           : Layer 3
Format settings                          : Joint stereo / MS Stereo
Codec ID                                 : A_MPEG/L3
Codec ID/Hint                            : MP3
Duration                                 : 1 h 42 min
Bit rate mode                            : Constant
Bit rate                                 : 128 kb/s
Channel(s)                               : 2 channels
Sampling rate                            : 48.0 kHz
Frame rate                               : 41.667 FPS (1152 SPF)
Compression mode                         : Lossy
Stream size                              : 93.9 MiB (8%)
Title                                    : Aile Hükümeti - 2020 | Filmbol.org
Language                                 : Turkish
Default                                  : Yes
Forced                                   : No

Film Detayları


 Aile Hükümeti

 Aile Hükümeti

 Aile Hükümeti


Film Fragmanı


Film Detayları



Zip Şifresi: filmbol.org Aşağıdaki butona tıklayarak kopyalabilirsiniz.



Uptobox ile indir

1Fichier ile indir

1Fichier'den İndiremiyor musun? Tıklayın!





Filmbol Cloud

Bunun için üzgünüz ancak, bu linke sadece premium üyeler erişebilir.




WWW


Hızlı Menü: