Filmbol Forum Film İndir FHD - FULL HD v Kaçış Planı 2: Hades (Escape Plan 2: Hades) - 2018 - TR+ORG - FHD - x264 | tt6513656
Bildirimi Kapat
Merhaba , site giderlerini bir nebze olsun karşılamak adına link kısaltma servisleri kullanmaya başladık. İndirme linkleri sizi ouo.io adresinde yönlendirecek, 3 saniye geçtikten sonra Get Link butonuna tıklayarak linke ulaşacaksınız. Premium üyeler bu durumdan etkilenmeyecektir.


Premium Üyelik Al

Kaçış Planı 2: Hades (Escape Plan 2: Hades) - 2018 - TR+ORG - FHD - x264 | tt6513656
BroserBros
Kaçış Planı 2: Hades (Escape Plan 2: Hades) - 2018 - TR+ORG - FHD - x264 | tt6513656
0
25
  • Derecelendirme: 0/5 - 0 oy
  • 1
  • 2
  • 3
  • 4
  • 5
Konuyu Okuyanlar:2 Ziyaretçi
Şuan Online!
Filmin Yayınlanma Tarihi: 2018 
Şuan Online!
BroserBros Kurucu Admin
*******
Admin


 Kaçış Planı 2: Hades




Kaçış Planı 2’de, Ray Breslin’in bilgisayarlı bir tekno-terör labirentinde kaybolan arkadaşını kurtarmak için verdiği mücadele anlatılıyor. Ray Breslin, yüksek güvenlikli hapishaneden kaçışının yıllar sonrasında yeni bir birinci sınıf, kiralık güvenlik gücü oluşturmuştur. Ama takım üyelerinden dövüş ustası Shu , Hades olarak bilinen bilgisayarlı tekno-terör savaş-labirentinde kaybolur. Breslin, arkadaşını kaybolduğu labirentten kurtarmaya kararlıdır. Bunun için öncelikle dünyanın en iyi gizli hapishanesine girme, kaçırılan takımı serbest bırakma ve onları canlı halde geri getirmenin bir yolunu bulmalıdır…

2013 yapımı “Kaçış Planı”nın 5 yıl aradan sonra gelen devam halkasının başrolünü bir kez daha aksiyon yıldızı Sylvester Stallone üstleniyor. Başrolde Stallone’a “Galaksinin Koruyucuları” serisinin Drax’ı olarak parlayan Dave Bautista, Silent Night ve Ocean’s 8 filmlerinde yer alan Jaime King ve ünlü hip-hop sanatçısı Curtis Jackson’ın eşlik ettiği aksiyon filminde Huang Xiaoming, Jesse Metcalfe, Wes Chatham, Lydia Hull, Titus Welliver de yer alıyor. Filmin yönetmen koltuğunda bu defa Mikael Håfström yerine, Silent Night, Marauders, First Kill filmlerinden hatırladığımız Steven C. Miller oturuyor.

Kaçış Planı 2: Hades (2018) (Escape Plan 2: Hades) | tt6513656 Filmi Imdb'den 30,000 kişi tarafından oylandı ve 3,9 puan aldı. Bu film için editör puanı %51 olarak belirlendi. İyi Seyirler!

Teknik Detaylar

Kod :
General
Unique ID                                : 266687167192409719076861685281955984533 (0xC8A21481F4A92D5B179DFDDEC13B3495)
Complete name                            : /home/BroserBros/Desktop/8/Kaçış.Planı.2.Hades.2018.FHD.BluRay.x264.TR.ENG.Filmbol.mkv
Format                                   : Matroska
Format version                           : Version 4
File size                                : 13.7 GiB
Duration                                 : 1 h 33 min
Overall bit rate mode                    : Variable
Overall bit rate                         : 21.0 Mb/s
Movie name                               : Kaçış Planı 2: Hades - Escape Plan 2: Hades - 2018 | Filmbol.org
Encoded date                             : UTC 2021-06-19 14:09:13
Writing application                      : mkvmerge v53.0.0 ('Fool's Gold') 64-bit
Writing library                          : libebml v1.4.1 + libmatroska v1.6.2

Video
ID                                       : 1
Format                                   : AVC
Format/Info                              : Advanced Video Codec
Format profile                           : [email protected]
Format settings                          : CABAC / 5 Ref Frames
Format settings, CABAC                   : Yes
Format settings, Reference frames        : 5 frames
Codec ID                                 : V_MPEG4/ISO/AVC
Duration                                 : 1 h 33 min
Bit rate                                 : 16.8 Mb/s
Width                                    : 1 920 pixels
Height                                   : 804 pixels
Display aspect ratio                     : 2.40:1
Frame rate mode                          : Constant
Frame rate                               : 23.976 (24000/1001) FPS
Color space                              : YUV
Chroma subsampling                       : 4:2:0
Bit depth                                : 8 bits
Scan type                                : Progressive
Bits/(Pixel*Frame)                       : 0.454
Stream size                              : 11.0 GiB (80%)
Title                                    : FHD - Filmbol.org
Writing library                          : x264 core 148 r2665kMod a01e339
Encoding settings                        : cabac=1 / ref=5 / deblock=1:-3:-3 / analyse=0x3:0x133 / me=umh / subme=11 / psy=1 / fade_compensate=0.00 / psy_rd=1.05:0.00 / mixed_ref=1 / me_range=48 / chroma_me=1 / trellis=2 / 8x8dct=1 / cqm=0 / deadzone=21,11 / fast_pskip=0 / chroma_qp_offset=-2 / threads=24 / lookahead_threads=4 / sliced_threads=0 / nr=0 / decimate=0 / interlaced=0 / bluray_compat=0 / constrained_intra=0 / fgo=0 / bframes=8 / b_pyramid=2 / b_adapt=2 / b_bias=0 / direct=3 / weightb=1 / open_gop=0 / weightp=2 / keyint=240 / keyint_min=24 / scenecut=40 / intra_refresh=0 / rc=2pass / mbtree=0 / bitrate=16800 / ratetol=1.0 / qcomp=0.70 / qpmin=0 / qpmax=69 / qpstep=4 / cplxblur=20.0 / qblur=0.5 / ip_ratio=1.20 / pb_ratio=1.20 / aq=3:0.80
Default                                  : Yes
Forced                                   : No

Audio #1
ID                                       : 2
Format                                   : AAC LC
Format/Info                              : Advanced Audio Codec Low Complexity
Codec ID                                 : A_AAC-2
Duration                                 : 1 h 28 min
Bit rate                                 : 69.2 kb/s
Channel(s)                               : 2 channels
Channel layout                           : L R
Sampling rate                            : 48.0 kHz
Frame rate                               : 46.875 FPS (1024 SPF)
Compression mode                         : Lossy
Stream size                              : 44.0 MiB (0%)
Title                                    : Türkçe - Filmbol.org
Language                                 : Turkish
Default                                  : Yes
Forced                                   : No

Audio #2
ID                                       : 3
Format                                   : DTS XLL
Format/Info                              : Digital Theater Systems
Commercial name                          : DTS-HD Master Audio
Codec ID                                 : A_DTS
Duration                                 : 1 h 33 min
Bit rate mode                            : Variable
Bit rate                                 : 4 108 kb/s
Channel(s)                               : 6 channels
Channel layout                           : C L R Ls Rs LFE
Sampling rate                            : 48.0 kHz
Frame rate                               : 93.750 FPS (512 SPF)
Bit depth                                : 24 bits
Compression mode                         : Lossless
Stream size                              : 2.69 GiB (20%)
Title                                    : Orijinal Dil - Filmbol.org
Language                                 : English
Default                                  : No
Forced                                   : No

Text #1
ID                                       : 4
Format                                   : UTF-8
Codec ID                                 : S_TEXT/UTF8
Codec ID/Info                            : UTF-8 Plain Text
Duration                                 : 1 h 24 min
Bit rate                                 : 47 b/s
Count of elements                        : 846
Stream size                              : 29.7 KiB (0%)
Title                                    : Türkçe - Filmbol.org
Language                                 : Turkish
Default                                  : No
Forced                                   : No

Text #2
ID                                       : 5
Format                                   : PGS
Muxing mode                              : zlib
Codec ID                                 : S_HDMV/PGS
Codec ID/Info                            : Picture based subtitle format used on BDs/HD-DVDs
Duration                                 : 1 h 24 min
Bit rate                                 : 30.9 kb/s
Count of elements                        : 1696
Stream size                              : 18.7 MiB (0%)
Title                                    : Orijinal Dil - Filmbol.org
Language                                 : English
Default                                  : No
Forced                                   : No

Film Detayları


 Kaçış Planı 2: Hades

 Kaçış Planı 2: Hades

 Kaçış Planı 2: Hades


Film Fragmanı


Film Detayları



Zip Şifresi: filmbol.org Aşağıdaki butona tıklayarak kopyalabilirsiniz.





Filmbol Cloud

Bunun için üzgünüz ancak, bu linke sadece premium üyeler erişebilir.




WWW


Hızlı Menü: