Filmbol Forum Film İndir 720P v Kaçış Planı 2: Hades (Escape Plan 2) Türkçe Dublaj BLURAY 720P İndir
Mega linklerinin şikayet edilmemesi için global erişime kapatıp sadece yorum yapanlara açıyoruz. Bu linkleri gizleme işlemini mecburen yapıyoruz ve yorum yapmanızın siteye değil size faydası vardır. Teşekürler yazmayı çok görüp, Random/Spam mesajlar atarak Mega linklerini açmaya çalışan kullanıcılara önce süresiz ban, devam ederse IP ban atacağız.
Filmbol'da moderatör olmak ister misiniz? Bizimle iletişime geçmek için tıklayın!
Kaçış Planı 2: Hades (Escape Plan 2) Türkçe Dublaj BLURAY 720P İndir
BroserBros
Kaçış Planı 2: Hades (Escape Plan 2) Türkçe Dublaj BLURAY 720P İndir
6
1117
  • Derecelendirme: 0/5 - 0 oy
  • 1
  • 2
  • 3
  • 4
  • 5
Konuyu Okuyanlar:1 Ziyaretçi
Şuan Online!
Filmin Yayınlanma Tarihi: 2018 
WWW
Şuan Online!
BroserBros Kurucu Admin
*******
Admin





Ses Kodek: AC3


Audio Coding 3 (AC3)






Kacis Plani 2



Teknik Detaylar

Kod :
General
Complete name                            : Kaçış.Planı.2.Hades.2018.m720p.BLURAY.x264.TR.Filmbol.mkv
Format                                   : Matroska
Format version                           : Version 4 / Version 2
File size                                : 833 MiB
Duration                                 : 1h 33mn
Overall bit rate                         : 1 244 Kbps
Movie name                               : Kaçış Planı: Hades (2018) - Filmbol.org
Encoded date                             : UTC 2019-09-06 16:21:46
Writing application                      : mkvmerge v35.0.0 ('All The Love In The World') 64-bit
Writing library                          : libebml v1.3.9 + libmatroska v1.5.2

Video
ID                                       : 1
Format                                   : AVC
Format/Info                              : Advanced Video Codec
Format profile                           : [email protected]
Format settings, CABAC                   : Yes
Format settings, ReFrames                : 4 frames
Codec ID                                 : V_MPEG4/ISO/AVC
Duration                                 : 1h 33mn
Bit rate                                 : 1 050 Kbps
Width                                    : 1 280 pixels
Height                                   : 534 pixels
Display aspect ratio                     : 2.40:1
Original display aspect ratio            : 2.40:1
Frame rate mode                          : Constant
Frame rate                               : 23.976 (24000/1001) fps
Color space                              : YUV
Chroma subsampling                       : 4:2:0
Bit depth                                : 8 bits
Scan type                                : Progressive
Bits/(Pixel*Frame)                       : 0.064
Stream size                              : 703 MiB (84%)
Title                                    : 720P - Filmbol.org
Writing library                          : x264 core 152
Default                                  : Yes
Forced                                   : No

Audio
ID                                       : 2
Format                                   : AC-3
Format/Info                              : Audio Coding 3
Mode extension                           : CM (complete main)
Format settings, Endianness              : Big
Codec ID                                 : A_AC3
Duration                                 : 1h 33mn
Bit rate mode                            : Constant
Bit rate                                 : 192 Kbps
Channel(s)                               : 2 channels
Channel positions                        : Front: L R
Sampling rate                            : 48.0 KHz
Frame rate                               : 31.250 fps (1536 spf)
Compression mode                         : Lossy
Stream size                              : 129 MiB (15%)
Title                                    : Türkçe - Filmbol.org
Language                                 : Turkish
Default                                  : Yes
Forced                                   : No



Film Detayları


Kacis 

Kacis 

Kacis 


Film Fragmanı


Film Detayları

Mini 720P İndir


Uptobox ile indir

1Fichier ile indir

1Fichier'den İndiremiyor musun? Tıklayın!


Mega linki şuan da gizli. Kullanıma açmak için konuya yorum yapın ve ardından sayfayı yenileyin.

Mega


MediaFire ile indir

Şuan Offine!
Şuan Offine!
aslan1059 Uzman Üye
**
Uzman Üye

  • Konular0
  • Mesajlar6
  • Rep puanı 0
güzel film
Şuan Offine!
Şuan Offine!
Mahoni27 Uzman Üye
**
Uzman Üye

  • Konular0
  • Mesajlar6
  • Rep puanı 0
Güzel
Şuan Offine!
Şuan Offine!
readerss Uzman Üye
**
Uzman Üye

  • Konular0
  • Mesajlar8
  • Rep puanı 0
tavsye ederim
Şuan Offine!
Şuan Offine!
cevatbaba28 Yeni Üye
*
Üye

  • Konular0
  • Mesajlar1
  • Rep puanı 0
mukemmel film mukemmel site
Şuan Offine!
Şuan Offine!
gokenci43 Uzman Üye
**
Uzman Üye

  • Konular0
  • Mesajlar16
  • Rep puanı 0
xngvgfdg
Şuan Offine!
Şuan Offine!
1969samet1970 Yeni Üye
*
Üye

  • Konular0
  • Mesajlar2
  • Rep puanı 0
İyi


Filmm


Konu ile Alakalı Benzer Konular
Konular Yazar Yorumlar Okunma Son Yorum
Filmin Yayınlanma Tarihi: 2021
Yıldırım Gücü (Thunder Force) - 2021 - TR+ORG - 720P | tt10121392 TheSteeL 0 6 7 saat önce
Son Yorum: TheSteeL
Filmin Yayınlanma Tarihi: 2013
Demir Adam 3 (Iron Man Three) - 2013 - TR+ORG - 720P | tt1300854 BroserBros 5 3,684 10-04-2021, Saat: 23:37
Son Yorum: ezobaskan
Filmin Yayınlanma Tarihi: 2012
Gerçeğin Peşinde (Man on a Ledge) - 2012 - TR+ORG - 720P | tt1568338 BroserBros 2 379 10-04-2021, Saat: 20:00
Son Yorum: BroserBros
Filmin Yayınlanma Tarihi: 2006
X-Men: Son Direniş (X-Men: The Last Stand) - 2006 - TR+ORG - 720P | tt0376994 BroserBros 4 2,413 10-04-2021, Saat: 19:47
Son Yorum: BroserBros
Filmin Yayınlanma Tarihi: 2003
X-Men 2 (X2: X-Men United) - 2003 - TR+ORG - 720P | tt0290334 BroserBros 5 2,651 10-04-2021, Saat: 18:58
Son Yorum: BroserBros

Hızlı Menü: