Filmbol Forum Film İndir FHD - FULL HD v Siyah Giyen Adamlar: Global Tehdit (Men in Black: International) - 2019 - TR+ORG - FHD - x264 | tt2283336
Bildirimi Kapat
Merhaba , site giderlerini bir nebze olsun karşılamak adına link kısaltma servisleri kullanmaya başladık. İndirme linkleri sizi ouo.io adresinde yönlendirecek, 3 saniye geçtikten sonra Get Link butonuna tıklayarak linke ulaşacaksınız. Premium üyeler bu durumdan etkilenmeyecektir.


Premium Üyelik Al

Siyah Giyen Adamlar: Global Tehdit (Men in Black: International) - 2019 - TR+ORG - FHD - x264 | tt2283336
BroserBros
Siyah Giyen Adamlar: Global Tehdit (Men in Black: International) - 2019 - TR+ORG - FHD - x264 | tt2283336
0
21
  • Derecelendirme: 0/5 - 0 oy
  • 1
  • 2
  • 3
  • 4
  • 5
Konuyu Okuyanlar:3 Ziyaretçi
Şuan Online!
Filmin Yayınlanma Tarihi: 2019 
Şuan Online!
BroserBros Kurucu Admin
*******
Admin


 Siyah Giyen Adamlar: Global Tehdit



Siyah Giyen Adamlar: Global Tehdit, dünyayı kötülüklerden arındırmaya çalışan ekibin, bu güne kadar karşılarına çıkan en büyük tehdit olan köstebeği ortaya çıkarmak için kurdukları takımla birlikte verdikleri mücadeleyi konu ediyor. Siyah Giyen Adamlar ne kadar genişlemişlerse kötü adamlar da bir o kadar artmıştır. Evren, herhangi birinin şekline girebilen bir uzaylı istilası ile karşı karşıya kalınca, ödüllü ajan H ile kararlı çaylak M birlikte hareket etmeye karar verir. Güçlerini birleştiren ikili, dünyayı kurtarmak için zorlu bir mücadeleye girişir. Yönetmen koltuğunda Barry Sonnenfeld’in oturduğu, Tommy Lee Jones ve Will Smith’le özdeşleşmiş Men In Black’in spin-off olarak izleyeceğimiz filmin yapımcılığını Laurie MacDonald ve Walker Parkes üstleniyor. Filmin senaryosunu ise Matt Holloway ve Art Marcum kaleme alıyor.

Siyah Giyen Adamlar: Global Tehdit (2019) (Men in Black: International) | tt2283336 Filmi Imdb'den 120,000 kişi tarafından oylandı ve 5,6 puan aldı. Bu film için editör puanı %69 olarak belirlendi. İyi Seyirler!

Teknik Detaylar

Kod :
General
Unique ID                                : 211627715352165786490365750645081940479 (0x9F3603F1A41A462EF6DD9F808E22A1FF)
Complete name                            : /home/BroserBros/Desktop/4/Siyah.Giyen.Adamlar.Global.Tehdit.2019.FHD.BluRay.x264.TR.ENG.Filmbol.mkv
Format                                   : Matroska
Format version                           : Version 4
File size                                : 4.84 GiB
Duration                                 : 1 h 54 min
Overall bit rate                         : 6 034 kb/s
Movie name                               : Siyah Giyen Adamlar: Global Tehdit - Men In Black: International - 2019 | Filmbol.org
Encoded date                             : UTC 2021-06-19 06:08:41
Writing application                      : mkvmerge v53.0.0 ('Fool's Gold') 64-bit
Writing library                          : libebml v1.4.1 + libmatroska v1.6.2
Cover                                    : Yes
Attachments                              : cover_land.jpg / small_cover.jpg / small_cover_land.jpg / cover.jpg

Video
ID                                       : 1
Format                                   : AVC
Format/Info                              : Advanced Video Codec
Format profile                           : [email protected]
Format settings                          : CABAC / 4 Ref Frames
Format settings, CABAC                   : Yes
Format settings, Reference frames        : 4 frames
Codec ID                                 : V_MPEG4/ISO/AVC
Duration                                 : 1 h 54 min
Bit rate                                 : 5 008 kb/s
Width                                    : 1 920 pixels
Height                                   : 952 pixels
Display aspect ratio                     : 2.017
Frame rate mode                          : Constant
Frame rate                               : 23.976 (24000/1001) FPS
Color space                              : YUV
Chroma subsampling                       : 4:2:0
Bit depth                                : 8 bits
Scan type                                : Progressive
Bits/(Pixel*Frame)                       : 0.114
Stream size                              : 4.02 GiB (83%)
Title                                    : FHD - Filmbol.org
Language                                 : English
Default                                  : Yes
Forced                                   : No
Color range                              : Limited
Color primaries                          : BT.709
Transfer characteristics                 : BT.709
Matrix coefficients                      : BT.709

Audio #1
ID                                       : 2
Format                                   : AC-3
Format/Info                              : Audio Coding 3
Commercial name                          : Dolby Digital
Codec ID                                 : A_AC3
Duration                                 : 1 h 54 min
Bit rate mode                            : Constant
Bit rate                                 : 640 kb/s
Channel(s)                               : 6 channels
Channel layout                           : L R C LFE Ls Rs
Sampling rate                            : 48.0 kHz
Frame rate                               : 31.250 FPS (1536 SPF)
Compression mode                         : Lossy
Delay relative to video                  : 24 ms
Stream size                              : 526 MiB (11%)
Title                                    : Türkçe - Filmbol.org
Language                                 : Turkish
Service kind                             : Complete Main
Default                                  : Yes
Forced                                   : No

Audio #2
ID                                       : 3
Format                                   : AC-3
Format/Info                              : Audio Coding 3
Commercial name                          : Dolby Digital
Codec ID                                 : A_AC3
Duration                                 : 1 h 54 min
Bit rate mode                            : Constant
Bit rate                                 : 384 kb/s
Channel(s)                               : 6 channels
Channel layout                           : L R C LFE Ls Rs
Sampling rate                            : 48.0 kHz
Frame rate                               : 31.250 FPS (1536 SPF)
Compression mode                         : Lossy
Stream size                              : 315 MiB (6%)
Title                                    : Orijinal Dil - Filmbol.org
Language                                 : English
Service kind                             : Complete Main
Default                                  : No
Forced                                   : No

Text #1
ID                                       : 4
Format                                   : UTF-8
Codec ID                                 : S_TEXT/UTF8
Codec ID/Info                            : UTF-8 Plain Text
Duration                                 : 1 h 30 min
Bit rate                                 : 0 b/s
Count of elements                        : 4
Stream size                              : 98.0 Bytes (0%)
Title                                    : Türkçe - Filmbol.org
Language                                 : Turkish
Default                                  : Yes
Forced                                   : No

Text #2
ID                                       : 5
Format                                   : UTF-8
Codec ID                                 : S_TEXT/UTF8
Codec ID/Info                            : UTF-8 Plain Text
Duration                                 : 1 h 53 min
Bit rate                                 : 59 b/s
Count of elements                        : 1436
Stream size                              : 49.2 KiB (0%)
Title                                    : Türkçe - Filmbol.org
Language                                 : Turkish
Default                                  : No
Forced                                   : No

Film Detayları


 Siyah Giyen Adamlar: Global Tehdit

 Siyah Giyen Adamlar: Global Tehdit

 Siyah Giyen Adamlar: Global Tehdit


Film Fragmanı


Film Detayları



Zip Şifresi: filmbol.org Aşağıdaki butona tıklayarak kopyalabilirsiniz.





Filmbol Cloud

Bunun için üzgünüz ancak, bu linke sadece premium üyeler erişebilir.




WWW


Hızlı Menü: