Filmbol Forum Film İndir 720P v Siyah Giyen Adamlar: Global Tehdit (Men in Black) Türkçe Dublaj BLURAY m720P İndir
Mega linklerinin şikayet edilmemesi için global erişime kapatıp sadece yorum yapanlara açıyoruz. Bu linkleri gizleme işlemini mecburen yapıyoruz ve yorum yapmanızın siteye değil size faydası vardır. Teşekürler yazmayı çok görüp, Random/Spam mesajlar atarak Mega linklerini açmaya çalışan kullanıcılara önce süresiz ban, devam ederse IP ban atacağız.
Filmbol'da moderatör olmak ister misiniz? Bizimle iletişime geçmek için tıklayın!
Siyah Giyen Adamlar: Global Tehdit (Men in Black) Türkçe Dublaj BLURAY m720P İndir
BroserBros
Siyah Giyen Adamlar: Global Tehdit (Men in Black) Türkçe Dublaj BLURAY m720P İndir
4
588
  • Derecelendirme: 0/5 - 0 oy
  • 1
  • 2
  • 3
  • 4
  • 5
Konuyu Okuyanlar:1 Ziyaretçi
Şuan Online!
Filmin Yayınlanma Tarihi: 2019 
WWW
Şuan Online!
BroserBros Kurucu Admin
*******
Admin





Ses Kodek: AC3


Audio Coding 3 (AC3)






Siyah Giyen Adamlar Global Tehdit



Teknik Detaylar

Kod :
General
Complete name                            : Siyah.Giyen.Adamlar.Global.Tehdit.2019.m720p.BluRay.x264.TR.Filmbol.mkv
Format                                   : Matroska
Format version                           : Version 4 / Version 2
File size                                : 1.19 GiB
Duration                                 : 1h 54mn
Overall bit rate                         : 1 486 Kbps
Movie name                               : Siyah Giyen Adamlar: Global Tehdit (2019) - Filmbol.org
Encoded date                             : UTC 2019-10-28 21:37:16
Writing application                      : mkvmerge v35.0.0 ('All The Love In The World') 64-bit
Writing library                          : libebml v1.3.9 + libmatroska v1.5.2
Cover                                    : Yes
Attachments                              : cover.jpg

Video
ID                                       : 1
Format                                   : AVC
Format/Info                              : Advanced Video Codec
Format profile                           : [email protected]
Format settings, CABAC                   : Yes
Format settings, ReFrames                : 4 frames
Codec ID                                 : V_MPEG4/ISO/AVC
Duration                                 : 1h 54mn
Bit rate                                 : 1 100 Kbps
Width                                    : 1 280 pixels
Height                                   : 630 pixels
Display aspect ratio                     : 2.033
Original display aspect ratio            : 2.034
Frame rate mode                          : Constant
Frame rate                               : 23.976 (24000/1001) fps
Color space                              : YUV
Chroma subsampling                       : 4:2:0
Bit depth                                : 8 bits
Scan type                                : Progressive
Bits/(Pixel*Frame)                       : 0.057
Stream size                              : 903 MiB (74%)
Title                                    : 720P - Filmbol.org
Writing library                          : x264 core 152
Default                                  : Yes
Forced                                   : No

Audio
ID                                       : 2
Format                                   : AC-3
Format/Info                              : Audio Coding 3
Mode extension                           : CM (complete main)
Format settings, Endianness              : Big
Codec ID                                 : A_AC3
Duration                                 : 1h 54mn
Bit rate mode                            : Constant
Bit rate                                 : 384 Kbps
Channel(s)                               : 6 channels
Channel positions                        : Front: L C R, Side: L R, LFE
Sampling rate                            : 48.0 KHz
Frame rate                               : 31.250 fps (1536 spf)
Compression mode                         : Lossy
Stream size                              : 315 MiB (26%)
Title                                    : Türkçe - Filmbol.org
Language                                 : Turkish
Default                                  : Yes
Forced                                   : No

Text
ID                                       : 3
Format                                   : UTF-8
Codec ID                                 : S_TEXT/UTF8
Codec ID/Info                            : UTF-8 Plain Text
Duration                                 : 1h 30mn
Bit rate                                 : 0 bps
Count of elements                        : 4
Stream size                              : 98.0 Bytes (0%)
Title                                    : KISIM
Language                                 : Turkish
Default                                  : Yes
Forced                                   : Yes



Film Detayları


Siyah Giyen Adamlar 

Siyah Giyen Adamlar 

Siyah Giyen Adamlar 


Film Fragmanı


Film Detayları

Mini 720P İndir


Uptobox ile indir

Mega linki şuan da gizli. Kullanıma açmak için konuya yorum yapın ve ardından sayfayı yenileyin.

Mega


MediaFire ile indir

Şuan Offine!
Şuan Offine!
inansah Uzman Üye
**
Uzman Üye

  • Konular0
  • Mesajlar13
  • Rep puanı 0
seviğdim bi seri
Şuan Offine!
Şuan Offine!
yunuser34 Uzman Üye
**
Uzman Üye

  • Konular0
  • Mesajlar15
  • Rep puanı 0
Ufihufifug
Şuan Offine!
Şuan Offine!
agresif Uzman Üye
**
Uzman Üye

  • Konular0
  • Mesajlar21
  • Rep puanı 0
teşekkürler
Şuan Offine!
Şuan Offine!
kadirhan83 Uzman Üye
**
Uzman Üye

  • Konular0
  • Mesajlar14
  • Rep puanı 0
teşekkürler


Konu ile Alakalı Benzer Konular
Konular Yazar Yorumlar Okunma Son Yorum
Filmin Yayınlanma Tarihi: 2014
Hobbit: Beş Ordunun Savaşı Türkçe Dublaj 720P İndir BroserBros 7 5,595 03-04-2021, Saat: 22:08
Son Yorum: Dilan
Filmin Yayınlanma Tarihi: 2013
Hobbit: Smaug'un Çorak Toprakları Türkçe Dublaj 720P İndir BroserBros 2 4,027 03-04-2021, Saat: 22:07
Son Yorum: Dilan
Filmin Yayınlanma Tarihi: 2012
Hobbit: Beklenmedik Yolculuk (An Unexpected Journey) Türkçe Dublaj 720P İndir BroserBros 3 6,125 03-04-2021, Saat: 20:48
Son Yorum: Dilan
Filmin Yayınlanma Tarihi: 2003
Karayıp Korsanları 1: Siyah inci'nin Laneti (Pirates of the Caribbean 1) - 2003 - TR+ORG - 720P | tt0325980 BroserBros 9 6,880 03-04-2021, Saat: 17:51
Son Yorum: BroserBros
Filmin Yayınlanma Tarihi: 2014
İnsan Avı (A Most Wanted Man) Türkçe Dublaj m720P İndir BroserBros 2 1,186 03-04-2021, Saat: 00:51
Son Yorum: jonwik47

Hızlı Menü: