Filmbol Forum Film İndir FHD - FULL HD v Sessizlik Körfezi (The Bay of Silence) - 2020 - TR+ORG - FHD - x264 | tt5617312
Bildirimi Kapat
Merhaba , site giderlerini bir nebze olsun karşılamak adına link kısaltma servisleri kullanmaya başladık. İndirme linkleri sizi ouo.io adresinde yönlendirecek, 3 saniye geçtikten sonra Get Link butonuna tıklayarak linke ulaşacaksınız. Premium üyeler bu durumdan etkilenmeyecektir.


Premium Üyelik Al

Sessizlik Körfezi (The Bay of Silence) - 2020 - TR+ORG - FHD - x264 | tt5617312
BroserBros
Sessizlik Körfezi (The Bay of Silence) - 2020 - TR+ORG - FHD - x264 | tt5617312
0
32
  • Derecelendirme: 0/5 - 0 oy
  • 1
  • 2
  • 3
  • 4
  • 5
Konuyu Okuyanlar:2 Ziyaretçi
Şuan Online!
Filmin Yayınlanma Tarihi: 2020 
Şuan Online!
BroserBros Kurucu Admin
*******
Admin


 Sessizlik Körfezi



Will ve Rosalind iyi geçinen ve evlenen, ardından çocuk sahibi olan bir eştir. Fakat Rosalind'in bazı sorunları vardır ve bu sorunlar bir anda ortadan kaybolması ile patlak verir. Will bu durumdan hemen sonra çocuklarını güvenli bir yere çekmesi gerektiğini anlar ve hemen çocukları gözlerden uzak bir yer olan Kuzey Fransa'ya gönderir. İçi rahatlamıştır ve şimdi rahat rahat karısını bulmaya çalışabilecektir. Fakat işler planladığı gibi gitmez. Küçük oğlu evde ölü bulunur ve olaylar garip bir yere doğru evrilmeye başlar...

Sessizlik Körfezi (2020) (The Bay of Silence) | tt5617312 Filmi Imdb'den 2,000 kişi tarafından oylandı ve 4,3 puan aldı. Bu film için editör puanı %55 olarak belirlendi. İyi Seyirler!

Teknik Detaylar

Kod :
General
Unique ID                                : 231512329514696125494166956291314242685 (0xAE2BA71D4AE8BAB860828BFB43E5547D)
Complete name                            : /home/TheSteel/Desktop/2/Sessizlik.Korfezi.2020.FHD.WEB-DL.x264.TR.ENG.Filmbol.mkv
Format                                   : Matroska
Format version                           : Version 4
File size                                : 3.65 GiB
Duration                                 : 1 h 33 min
Overall bit rate                         : 5 596 kb/s
Movie name                               : The Bay Of Silence - Sessizlik Körfezi - 2020 | Filmbol.org
Encoded date                             : UTC 2021-06-16 13:01:07
Writing application                      : mkvmerge v31.0.0 ('Dolores In A Shoestand') 64-bit
Writing library                          : libebml v1.3.6 + libmatroska v1.4.9

Video
ID                                       : 1
Format                                   : AVC
Format/Info                              : Advanced Video Codec
Format profile                           : [email protected]
Format settings                          : CABAC / 2 Ref Frames
Format settings, CABAC                   : Yes
Format settings, Reference frames        : 2 frames
Codec ID                                 : V_MPEG4/ISO/AVC
Duration                                 : 1 h 33 min
Bit rate                                 : 5 018 kb/s
Width                                    : 1 920 pixels
Height                                   : 1 080 pixels
Display aspect ratio                     : 16:9
Frame rate mode                          : Constant
Frame rate                               : 23.976 (24000/1001) FPS
Color space                              : YUV
Chroma subsampling                       : 4:2:0
Bit depth                                : 8 bits
Scan type                                : Progressive
Bits/(Pixel*Frame)                       : 0.101
Stream size                              : 3.28 GiB (90%)
Title                                    : The Bay Of Silence - Sessizlik Körfezi - 2020 | Filmbol.org
Writing library                          : x264 core 155 r2901 7d0ff22
Language                                 : English
Default                                  : Yes
Forced                                   : No
Color range                              : Limited
Color primaries                          : BT.709
Transfer characteristics                 : BT.709
Matrix coefficients                      : BT.709

Audio #1
ID                                       : 2
Format                                   : AC-3
Format/Info                              : Audio Coding 3
Commercial name                          : Dolby Digital
Codec ID                                 : A_AC3
Duration                                 : 1 h 33 min
Bit rate mode                            : Constant
Bit rate                                 : 192 kb/s
Channel(s)                               : 2 channels
Channel layout                           : L R
Sampling rate                            : 48.0 kHz
Frame rate                               : 31.250 FPS (1536 SPF)
Compression mode                         : Lossy
Stream size                              : 128 MiB (3%)
Title                                    : The Bay Of Silence - Sessizlik Körfezi - 2020 | Filmbol.org
Language                                 : Turkish
Service kind                             : Complete Main
Default                                  : Yes
Forced                                   : No

Audio #2
ID                                       : 3
Format                                   : AC-3
Format/Info                              : Audio Coding 3
Commercial name                          : Dolby Digital
Codec ID                                 : A_AC3
Duration                                 : 1 h 33 min
Bit rate mode                            : Constant
Bit rate                                 : 384 kb/s
Channel(s)                               : 6 channels
Channel layout                           : L R C LFE Ls Rs
Sampling rate                            : 48.0 kHz
Frame rate                               : 31.250 FPS (1536 SPF)
Compression mode                         : Lossy
Stream size                              : 257 MiB (7%)
Title                                    : The Bay Of Silence - Sessizlik Körfezi - 2020 | Filmbol.org
Language                                 : English
Service kind                             : Complete Main
Default                                  : No
Forced                                   : No

Text
ID                                       : 4
Format                                   : UTF-8
Codec ID                                 : S_TEXT/UTF8
Codec ID/Info                            : UTF-8 Plain Text
Duration                                 : 1 h 23 min
Bit rate                                 : 40 b/s
Count of elements                        : 865
Stream size                              : 24.5 KiB (0%)
Title                                    : The Bay Of Silence - Sessizlik Körfezi - 2020 | Filmbol.org
Language                                 : Turkish
Default                                  : No
Forced                                   : No

Film Detayları


 Sessizlik Körfezi

 Sessizlik Körfezi

 Sessizlik Körfezi


Film Fragmanı


Film Detayları



Zip Şifresi: filmbol.org Aşağıdaki butona tıklayarak kopyalabilirsiniz.





Filmbol Cloud

Bunun için üzgünüz ancak, bu linke sadece premium üyeler erişebilir.




WWW


Hızlı Menü: