Filmbol Forum Film İndir BRRip XviD v Sessizlik Körfezi (The Bay of Silence) - 2020 - TR - BRRip XviD | tt5617312
Bildirimi Kapat
Merhaba , site giderlerini bir nebze olsun karşılamak adına link kısaltma servisleri kullanmaya başladık. İndirme linkleri sizi ouo.io adresinde yönlendirecek, 3 saniye geçtikten sonra Get Link butonuna tıklayarak linke ulaşacaksınız. Premium üyeler bu durumdan etkilenmeyecektir.


Premium Üyelik Al

Sessizlik Körfezi (The Bay of Silence) - 2020 - TR - BRRip XviD | tt5617312
BroserBros
Sessizlik Körfezi (The Bay of Silence) - 2020 - TR - BRRip XviD | tt5617312
0
31
  • Derecelendirme: 0/5 - 0 oy
  • 1
  • 2
  • 3
  • 4
  • 5
Konuyu Okuyanlar:3 Ziyaretçi
Şuan Online!
Filmin Yayınlanma Tarihi: 2020 
Şuan Online!
BroserBros Kurucu Admin
*******
Admin


 Sessizlik Körfezi



Will ve Rosalind iyi geçinen ve evlenen, ardından çocuk sahibi olan bir eştir. Fakat Rosalind'in bazı sorunları vardır ve bu sorunlar bir anda ortadan kaybolması ile patlak verir. Will bu durumdan hemen sonra çocuklarını güvenli bir yere çekmesi gerektiğini anlar ve hemen çocukları gözlerden uzak bir yer olan Kuzey Fransa'ya gönderir. İçi rahatlamıştır ve şimdi rahat rahat karısını bulmaya çalışabilecektir. Fakat işler planladığı gibi gitmez. Küçük oğlu evde ölü bulunur ve olaylar garip bir yere doğru evrilmeye başlar...

Sessizlik Körfezi (2020) (The Bay of Silence) | tt5617312 Filmi Imdb'den 2,000 kişi tarafından oylandı ve 4,3 puan aldı. Bu film için editör puanı %55 olarak belirlendi. İyi Seyirler!

Teknik Detaylar

Kod :
General
Unique ID                                : 306704266095857243277482601308277199830 (0xE6BD17CFCCE5FE0818917EAC3E1453D6)
Complete name                            : /home/TheSteel/Desktop/2/Sessizlik.Korfezi.2020.HDRip.XViD.TR.Filmbol.avi
Format                                   : Matroska
Format version                           : Version 4
File size                                : 927 MiB
Duration                                 : 1 h 33 min
Overall bit rate                         : 1 386 kb/s
Movie name                               : The Bay Of Silence - Sessizlik Körfezi - 2020 | Filmbol.org
Encoded date                             : UTC 2021-06-16 12:59:00
Writing application                      : mkvmerge v31.0.0 ('Dolores In A Shoestand') 64-bit
Writing library                          : libebml v1.3.6 + libmatroska v1.4.9
FileExtension_Invalid                    : mkv mk3d mka mks

Video
ID                                       : 1
Format                                   : MPEG-4 Visual
Format profile                           : [email protected]
Format settings, BVOP                    : No
Format settings, QPel                    : No
Format settings, GMC                     : No warppoints
Format settings, Matrix                  : Default (H.263)
Codec ID                                 : V_MS/VFW/FOURCC / XVID
Codec ID/Hint                            : XviD
Duration                                 : 1 h 33 min
Bit rate                                 : 1 256 kb/s
Width                                    : 720 pixels
Height                                   : 302 pixels
Display aspect ratio                     : 2.40:1
Frame rate mode                          : Constant
Frame rate                               : 23.976 FPS
Color space                              : YUV
Chroma subsampling                       : 4:2:0
Bit depth                                : 8 bits
Scan type                                : Progressive
Compression mode                         : Lossy
Bits/(Pixel*Frame)                       : 0.241
Stream size                              : 840 MiB (91%)
Title                                    : The Bay Of Silence - Sessizlik Körfezi - 2020 | Filmbol.org
Writing library                          : Lavc58.35.100
Default                                  : Yes
Forced                                   : No

Audio
ID                                       : 2
Format                                   : MPEG Audio
Format version                           : Version 1
Format profile                           : Layer 3
Format settings                          : Joint stereo / MS Stereo
Codec ID                                 : A_MPEG/L3
Codec ID/Hint                            : MP3
Duration                                 : 1 h 33 min
Bit rate mode                            : Constant
Bit rate                                 : 128 kb/s
Channel(s)                               : 2 channels
Sampling rate                            : 48.0 kHz
Frame rate                               : 41.667 FPS (1152 SPF)
Compression mode                         : Lossy
Stream size                              : 85.6 MiB (9%)
Title                                    : The Bay Of Silence - Sessizlik Körfezi - 2020 | Filmbol.org
Writing library                          : LAME3.99.5
Default                                  : Yes
Forced                                   : No

Film Detayları


 Sessizlik Körfezi

 Sessizlik Körfezi

 Sessizlik Körfezi


Film Fragmanı


Film Detayları



Zip Şifresi: filmbol.org Aşağıdaki butona tıklayarak kopyalabilirsiniz.



Uptobox ile indir

1Fichier ile indir

1Fichier'den İndiremiyor musun? Tıklayın!





Filmbol Cloud

Bunun için üzgünüz ancak, bu linke sadece premium üyeler erişebilir.




WWW


Hızlı Menü: