Filmbol Forum Film İndir FHD - FULL HD v Cadılar Bayramı (Halloween) - 2018 - TR+ORG - FHD - x264 | tt1502407
Bildirimi Kapat
Merhaba , site giderlerini bir nebze olsun karşılamak adına link kısaltma servisleri kullanmaya başladık. İndirme linkleri sizi ouo.io adresinde yönlendirecek, 3 saniye geçtikten sonra Get Link butonuna tıklayarak linke ulaşacaksınız. Premium üyeler bu durumdan etkilenmeyecektir.


Premium Üyelik Al

Cadılar Bayramı (Halloween) - 2018 - TR+ORG - FHD - x264 | tt1502407
BroserBros
Cadılar Bayramı (Halloween) - 2018 - TR+ORG - FHD - x264 | tt1502407
0
25
  • Derecelendirme: 0/5 - 0 oy
  • 1
  • 2
  • 3
  • 4
  • 5
Konuyu Okuyanlar:2 Ziyaretçi
Şuan Online!
Filmin Yayınlanma Tarihi: 2018 
Şuan Online!
BroserBros Kurucu Admin
*******
Admin


 Cadılar Bayramı



1978 yılı Cadılar Bayramı’nda dört masum genci öldüren Michael Myers ile ilgili araştırma yapan bir grup araştırmacı Myers’ı hapishanede ziyaret ederler. Bu sırada herkes yaklaşmakta olan Cadılar Bayramı hazırlıkları içerisindedir. Cadılar Bayramı’nın gelmesini bekleyen biri daha vardır; Laurie Strode. Laurie, 40 yıl önce bir Cadılar Bayramı gecesi kendisini öldürmeye çalışan maskeli katil Michael Myers ile yüzleşmek istemektedir. Laurie, Myers’la yüzleşebilmek ve intikamını alabilmek için onun hapishaneden kaçmasını beklemektedir ve hayali gerçekleşir. Myers’ın da içinde bulunduğu hapishane nakil aracı kaza yapar ve Michael Myers kaçmayı başarır. Maskeli katilin kendisinin peşine düşeceğini bilen Laurie büyük karşılaşma için tüm hazırlıklarını yapmıştır.

Cadılar Bayramı (2018) (Halloween) | tt1502407 Filmi Imdb'den 130,000 kişi tarafından oylandı ve 6,5 puan aldı. Bu film için editör puanı %70 olarak belirlendi. İyi Seyirler!

Teknik Detaylar

Kod :
General
Unique ID                                : 168042875631191318492640012848048234850 (0x7E6BE16FC82514F7FA8042935189E162)
Complete name                            : /home/BroserBros/Desktop/5/Cadılar.Bayramı.2018.FHD.BluRay.x264.TR.ENG.Filmbol.mkv
Format                                   : Matroska
Format version                           : Version 4
File size                                : 3.60 GiB
Duration                                 : 1 h 45 min
Overall bit rate                         : 4 869 kb/s
Movie name                               : Cadılar Bayramı - Halloween - 2018 | Filmbol.org
Encoded date                             : UTC 2021-06-16 12:22:44
Writing application                      : mkvmerge v53.0.0 ('Fool's Gold') 64-bit
Writing library                          : libebml v1.4.1 + libmatroska v1.6.2

Video
ID                                       : 1
Format                                   : AVC
Format/Info                              : Advanced Video Codec
Format profile                           : [email protected]
Format settings                          : CABAC / 5 Ref Frames
Format settings, CABAC                   : Yes
Format settings, Reference frames        : 5 frames
Codec ID                                 : V_MPEG4/ISO/AVC
Duration                                 : 1 h 45 min
Bit rate                                 : 4 547 kb/s
Width                                    : 1 916 pixels
Height                                   : 800 pixels
Display aspect ratio                     : 2.40:1
Frame rate mode                          : Constant
Frame rate                               : 23.976 (23976/1000) FPS
Color space                              : YUV
Chroma subsampling                       : 4:2:0
Bit depth                                : 8 bits
Scan type                                : Progressive
Bits/(Pixel*Frame)                       : 0.124
Stream size                              : 3.36 GiB (93%)
Title                                    : FHD - Filmbol.org
Language                                 : English
Default                                  : Yes
Forced                                   : No
Color range                              : Limited
Color primaries                          : BT.709
Transfer characteristics                 : BT.709
Matrix coefficients                      : BT.709

Audio #1
ID                                       : 2
Format                                   : AC-3
Format/Info                              : Audio Coding 3
Commercial name                          : Dolby Digital
Codec ID                                 : A_AC3
Duration                                 : 1 h 45 min
Bit rate mode                            : Constant
Bit rate                                 : 128 kb/s
Channel(s)                               : 2 channels
Channel layout                           : L R
Sampling rate                            : 44.1 kHz
Frame rate                               : 28.711 FPS (1536 SPF)
Compression mode                         : Lossy
Stream size                              : 96.9 MiB (3%)
Title                                    : Türkçe - Filmbol.org
Language                                 : Turkish
Service kind                             : Complete Main
Default                                  : Yes
Forced                                   : Yes

Audio #2
ID                                       : 3
Format                                   : AC-3
Format/Info                              : Audio Coding 3
Commercial name                          : Dolby Digital
Codec ID                                 : A_AC3
Duration                                 : 1 h 45 min
Bit rate mode                            : Constant
Bit rate                                 : 192 kb/s
Channel(s)                               : 2 channels
Channel layout                           : L R
Sampling rate                            : 48.0 kHz
Frame rate                               : 31.250 FPS (1536 SPF)
Compression mode                         : Lossy
Delay relative to video                  : 100 ms
Stream size                              : 145 MiB (4%)
Title                                    : Orijinal Dil - Filmbol.org
Language                                 : English
Service kind                             : Complete Main
Default                                  : No
Forced                                   : No

Text
ID                                       : 4
Format                                   : UTF-8
Codec ID                                 : S_TEXT/UTF8
Codec ID/Info                            : UTF-8 Plain Text
Duration                                 : 1 h 39 min
Bit rate                                 : 50 b/s
Count of elements                        : 1076
Stream size                              : 37.0 KiB (0%)
Title                                    : Türkçe - Filmbol.org
Language                                 : Turkish
Default                                  : No
Forced                                   : No

Film Detayları


 Cadılar Bayramı

 Cadılar Bayramı

 Cadılar Bayramı


Film Fragmanı


Film Detayları



Zip Şifresi: filmbol.org Aşağıdaki butona tıklayarak kopyalabilirsiniz.





Filmbol Cloud

Bunun için üzgünüz ancak, bu linke sadece premium üyeler erişebilir.




WWW


Hızlı Menü: