⤤ Premium'a Yükselt

Merhaba, Ziyaretçi. Mega linklerinin bir kısmı deaktif halde ve yenileme çalışmalarına başladık. Bu süre içinde ikinci duyuruya kadar mega linklerini raporlamayın!! x

Filmbol Forum Film İndir 720P v Cadılar Bayramı (Halloween) - 2018 - TR+ORG - 720P | tt1502407

Filmbol TV kullanıma açıldı. Bu adresten giriş yapabilirsin: Giriş





Cadılar Bayramı (Halloween) - 2018 - TR+ORG - 720P | tt1502407
BroserBros
Cadılar Bayramı (Halloween) - 2018 - TR+ORG - 720P | tt1502407
5
889
  • Derecelendirme: 0/5 - 0 oy
  • 1
  • 2
  • 3
  • 4
  • 5
Konuyu Okuyanlar:3 Ziyaretçi
Şuan Online!
Filmin Yayınlanma Tarihi: 2018 
WWW
Rapor Et!
Şuan Online!
BroserBros Kurucu Admin
*******
Admin



 Cadılar Bayramı



1978 yılı Cadılar Bayramı’nda dört masum genci öldüren Michael Myers ile ilgili araştırma yapan bir grup araştırmacı Myers’ı hapishanede ziyaret ederler. Bu sırada herkes yaklaşmakta olan Cadılar Bayramı hazırlıkları içerisindedir. Cadılar Bayramı’nın gelmesini bekleyen biri daha vardır; Laurie Strode. Laurie, 40 yıl önce bir Cadılar Bayramı gecesi kendisini öldürmeye çalışan maskeli katil Michael Myers ile yüzleşmek istemektedir. Laurie, Myers’la yüzleşebilmek ve intikamını alabilmek için onun hapishaneden kaçmasını beklemektedir ve hayali gerçekleşir. Myers’ın da içinde bulunduğu hapishane nakil aracı kaza yapar ve Michael Myers kaçmayı başarır. Maskeli katilin kendisinin peşine düşeceğini bilen Laurie büyük karşılaşma için tüm hazırlıklarını yapmıştır.

Cadılar Bayramı (2018) (Halloween) | tt1502407 Filmi Imdb'den 130,000 kişi tarafından oylandı ve 6,5 puan aldı. Bu film için editör puanı %70 olarak belirlendi. İyi Seyirler!

Teknik Detaylar

Kod :
General
Unique ID                                : 212123199867309648272007318689301819578 (0x9F9571377385837F39870D4B504E70BA)
Complete name                            : /home/BroserBros/Desktop/5/Cadılar.Bayramı.2018.720p.BluRay.x264.TR.ENG.Filmbol.mkv
Format                                   : Matroska
Format version                           : Version 4
File size                                : 937 MiB
Duration                                 : 1 h 45 min
Overall bit rate                         : 1 238 kb/s
Movie name                               : Cadılar Bayramı - Halloween - 2018 | Filmbol.org
Encoded date                             : UTC 2021-06-16 12:21:39
Writing application                      : mkvmerge v53.0.0 ('Fool's Gold') 64-bit
Writing library                          : libebml v1.4.1 + libmatroska v1.6.2

Video
ID                                       : 1
Format                                   : AVC
Format/Info                              : Advanced Video Codec
Format profile                           : [email protected]
Format settings                          : CABAC / 4 Ref Frames
Format settings, CABAC                   : Yes
Format settings, Reference frames        : 4 frames
Codec ID                                 : V_MPEG4/ISO/AVC
Duration                                 : 1 h 45 min
Bit rate                                 : 1 050 kb/s
Width                                    : 1 280 pixels
Height                                   : 534 pixels
Display aspect ratio                     : 2.40:1
Original display aspect ratio            : 2.40:1
Frame rate mode                          : Constant
Frame rate                               : 23.976 (24000/1001) FPS
Color space                              : YUV
Chroma subsampling                       : 4:2:0
Bit depth                                : 8 bits
Scan type                                : Progressive
Bits/(Pixel*Frame)                       : 0.064
Stream size                              : 795 MiB (85%)
Title                                    : 720P - Filmbol.org
Writing library                          : x264 core 157
Encoding settings                        : cabac=1 / ref=4 / deblock=1:-1:-1 / analyse=0x3:0x133 / me=umh / subme=9 / psy=1 / psy_rd=1.00:0.15 / mixed_ref=1 / me_range=24 / chroma_me=1 / trellis=2 / 8x8dct=1 / cqm=0 / deadzone=21,11 / fast_pskip=0 / chroma_qp_offset=-3 / threads=17 / lookahead_threads=1 / sliced_threads=0 / nr=0 / decimate=1 / interlaced=0 / bluray_compat=0 / constrained_intra=0 / bframes=3 / b_pyramid=2 / b_adapt=2 / b_bias=0 / direct=3 / weightb=1 / open_gop=0 / weightp=2 / keyint=250 / keyint_min=23 / scenecut=40 / intra_refresh=0 / rc_lookahead=60 / rc=2pass / mbtree=1 / bitrate=1050 / ratetol=1.0 / qcomp=0.60 / qpmin=0 / qpmax=69 / qpstep=4 / cplxblur=20.0 / qblur=0.5 / vbv_maxrate=31250 / vbv_bufsize=31250 / nal_hrd=none / filler=0 / ip_ratio=1.40 / aq=1:1.00
Default                                  : Yes
Forced                                   : No

Audio #1
ID                                       : 2
Format                                   : AC-3
Format/Info                              : Audio Coding 3
Commercial name                          : Dolby Digital
Codec ID                                 : A_AC3
Duration                                 : 1 h 45 min
Bit rate mode                            : Constant
Bit rate                                 : 128 kb/s
Channel(s)                               : 2 channels
Channel layout                           : L R
Sampling rate                            : 44.1 kHz
Frame rate                               : 28.711 FPS (1536 SPF)
Compression mode                         : Lossy
Stream size                              : 96.9 MiB (10%)
Title                                    : Türkçe - Filmbol.org
Language                                 : Turkish
Service kind                             : Complete Main
Default                                  : Yes
Forced                                   : Yes

Audio #2
ID                                       : 3
Format                                   : AAC LC SBR
Format/Info                              : Advanced Audio Codec Low Complexity with Spectral Band Replication
Commercial name                          : HE-AAC
Format settings                          : Explicit
Codec ID                                 : A_AAC-2
Duration                                 : 1 h 45 min
Bit rate                                 : 57.2 kb/s
Channel(s)                               : 2 channels
Channel layout                           : L R
Sampling rate                            : 48.0 kHz
Frame rate                               : 23.438 FPS (2048 SPF)
Compression mode                         : Lossy
Delay relative to video                  : 31 ms
Stream size                              : 43.3 MiB (5%)
Title                                    : Orijinal Dil - Filmbol.org
Language                                 : English
Default                                  : No
Forced                                   : No

Text
ID                                       : 4
Format                                   : UTF-8
Codec ID                                 : S_TEXT/UTF8
Codec ID/Info                            : UTF-8 Plain Text
Duration                                 : 1 h 39 min
Bit rate                                 : 50 b/s
Count of elements                        : 1076
Stream size                              : 37.0 KiB (0%)
Title                                    : Türkçe - Filmbol.org
Language                                 : Turkish
Default                                  : No
Forced                                   : No

Film Detayları


 Cadılar Bayramı

 Cadılar Bayramı

 Cadılar Bayramı


Film Fragmanı


Film İndir


Rar Şifresi: filmbol.org


Uptobox ile indir

1Fichier ile indir

1Fichier'den İndiremiyor musun? Tıklayın!












Şuan Offine!
Rapor Et!
Şuan Offine!
omfaru6161 Üye
*
Üye
  • Konular0
  • Mesajlar1
  • Rep puanı 0
Hshshe Wink Rolleyes
Şuan Offine!
Rapor Et!
Şuan Offine!
gonenoya Cezalı Üye
  • Konular0
  • Mesajlar45
fdsfwegfrgrg
Şuan Online!
Rapor Et!
Şuan Online!
BroserBros Kurucu Admin
*******
Admin
18.06.2021 Yönetici Notu:

Kırık linkler kontrol edildi, kaldırıldı ve yenilendi. Tüm linkler tamamen çalışır durumda.
Şuan Offine!
Rapor Et!
Şuan Offine!
tamiasboi Üye
*
Üye
  • Konular0
  • Mesajlar71
  • Rep puanı 0
Teşekkürler
Şuan Offine!
Rapor Et!
Şuan Offine!
tamer Üye
*
Üye
  • Konular0
  • Mesajlar37
  • Rep puanı 0
Teşekkürler.


Hızlı Menü: