Filmbol Forum Film İndir UHD - ULTRA HD - 4K v The Knight Before Christmas (The Knight Before Christmas) - 2019 - TR+ORG - UHD (4K) - 10Bit-x265 | tt10060094
Bildirimi Kapat
Merhaba , site giderlerini bir nebze olsun karşılamak adına link kısaltma servisleri kullanmaya başladık. İndirme linkleri sizi ouo.io adresinde yönlendirecek, 3 saniye geçtikten sonra Get Link butonuna tıklayarak linke ulaşacaksınız. Premium üyeler bu durumdan etkilenmeyecektir.


Premium Üyelik Al

The Knight Before Christmas (The Knight Before Christmas) - 2019 - TR+ORG - UHD (4K) - 10Bit-x265 | tt10060094
BroserBros
The Knight Before Christmas (The Knight Before Christmas) - 2019 - TR+ORG - UHD (4K) - 10Bit-x265 | tt10060094
0
23
  • Derecelendirme: 0/5 - 0 oy
  • 1
  • 2
  • 3
  • 4
  • 5
Konuyu Okuyanlar:1 Ziyaretçi
Şuan Online!
Filmin Yayınlanma Tarihi: 2019 
Şuan Online!
BroserBros Kurucu Admin
*******
Admin


 The Knight Before Christmas



Orta Çağ şövalyesi Sir Cole, bir büyücü tarafında Noel tatilinin ortasında bugünkü Ohio’ya ışınlanır. İyi kalpli bir öğretmen olan Brooke’un yolu talihsiz bir kaza sonucu Cole ile kesişir. Arabası ile Cole’e çarpan Brooke, genç adamı hastaneye götürür. Burada kendisini şovalye olarak tanıtan Cole’, kimseye kendisini inandıramaz. Doktorlar Cole”un kaza sonucu hafıza kaybı yaşadığını düşünür. Bu durumdan kendisini sorumlu tutan Brooke, bu süreçte Cole’e yardımcı olmaya çalışır. Bu sayede yakınlaşmaya başlayan ve birbirlerinden etkilenen Brooke ve Cole, karşılarına çıkan zorlukların üstesinden gelebilecek midir?

The Knight Before Christmas (2019) (The Knight Before Christmas) | tt10060094 Filmi Imdb'den 16,000 kişi tarafından oylandı ve 5,5 puan aldı. Bu film için editör puanı %62 olarak belirlendi. İyi Seyirler!

Teknik Detaylar

Kod :
General
Unique ID                                : 100043430566571011661565913560941825100 (0x4B43A9F32BAA8080746765D6F6978C4C)
Complete name                            : /home/BroserBros/Desktop/8/The.Knight.Before.Christmas.2019.2160p.4K.BluRay.x265.10Bit.HDR.HEVC.TR.ENG.Filmbol.mkv
Format                                   : Matroska
Format version                           : Version 4
File size                                : 4.15 GiB
Duration                                 : 1 h 32 min
Overall bit rate                         : 6 414 kb/s
Movie name                               : The Knight Before Christmas - 2019 | Filmbol.org
Encoded date                             : UTC 2021-06-14 12:30:07
Writing application                      : mkvmerge v53.0.0 ('Fool's Gold') 64-bit
Writing library                          : libebml v1.4.1 + libmatroska v1.6.2
Cover                                    : Yes
Attachments                              : cover.jpg

Video
ID                                       : 1
Format                                   : HEVC
Format/Info                              : High Efficiency Video Coding
Format profile                           : Main [email protected]@High
Codec ID                                 : V_MPEGH/ISO/HEVC
Duration                                 : 1 h 31 min
Bit rate                                 : 5 701 kb/s
Width                                    : 3 840 pixels
Height                                   : 1 920 pixels
Display aspect ratio                     : 2.000
Frame rate mode                          : Constant
Frame rate                               : 24.000 FPS
Color space                              : YUV
Chroma subsampling                       : 4:2:0
Bit depth                                : 10 bits
Bits/(Pixel*Frame)                       : 0.032
Stream size                              : 3.65 GiB (88%)
Title                                    : 4K - Filmbol.org
Default                                  : Yes
Forced                                   : No
Color range                              : Limited
Matrix coefficients                      : BT.709

Audio #1
ID                                       : 2
Format                                   : AC-3
Format/Info                              : Audio Coding 3
Commercial name                          : Dolby Digital
Codec ID                                 : A_AC3
Duration                                 : 1 h 32 min
Bit rate mode                            : Constant
Bit rate                                 : 384 kb/s
Channel(s)                               : 6 channels
Channel layout                           : L R C LFE Ls Rs
Sampling rate                            : 48.0 kHz
Frame rate                               : 31.250 FPS (1536 SPF)
Compression mode                         : Lossy
Stream size                              : 254 MiB (6%)
Title                                    : Türkçe - Filmbol.org
Language                                 : Turkish
Service kind                             : Complete Main
Default                                  : Yes
Forced                                   : No

Audio #2
ID                                       : 3
Format                                   : AAC LC
Format/Info                              : Advanced Audio Codec Low Complexity
Codec ID                                 : A_AAC-2
Duration                                 : 1 h 32 min
Bit rate                                 : 384 kb/s
Channel(s)                               : 6 channels
Channel layout                           : C L R Ls Rs LFE
Sampling rate                            : 48.0 kHz
Frame rate                               : 46.875 FPS (1024 SPF)
Compression mode                         : Lossy
Delay relative to video                  : 9 ms
Stream size                              : 256 MiB (6%)
Title                                    : Orijinal Dil - Filmbol.org
Language                                 : English
Default                                  : No
Forced                                   : No

Text #1
ID                                       : 4
Format                                   : UTF-8
Codec ID                                 : S_TEXT/UTF8
Codec ID/Info                            : UTF-8 Plain Text
Duration                                 : 1 h 31 min
Bit rate                                 : 0 b/s
Count of elements                        : 20
Stream size                              : 463 Bytes (0%)
Title                                    : Türkçe - Filmbol.org
Language                                 : Turkish
Default                                  : Yes
Forced                                   : Yes

Text #2
ID                                       : 5
Format                                   : UTF-8
Codec ID                                 : S_TEXT/UTF8
Codec ID/Info                            : UTF-8 Plain Text
Duration                                 : 1 h 31 min
Bit rate                                 : 65 b/s
Count of elements                        : 1345
Stream size                              : 43.5 KiB (0%)
Title                                    : Türkçe - Filmbol.org
Language                                 : Turkish
Default                                  : No
Forced                                   : No

Text #3
ID                                       : 6
Format                                   : UTF-8
Codec ID                                 : S_TEXT/UTF8
Codec ID/Info                            : UTF-8 Plain Text
Duration                                 : 1 h 27 min
Bit rate                                 : 71 b/s
Count of elements                        : 1440
Stream size                              : 45.6 KiB (0%)
Title                                    : Orijinal Dil - Filmbol.org
Language                                 : English
Default                                  : No
Forced                                   : No

Film Detayları


 The Knight Before Christmas

 The Knight Before Christmas

 The Knight Before Christmas


Film Fragmanı


Film Detayları



Zip Şifresi: filmbol.org Aşağıdaki butona tıklayarak kopyalabilirsiniz.





Filmbol Cloud

Bunun için üzgünüz ancak, bu linke sadece premium üyeler erişebilir.




WWW


Hızlı Menü: