⤤ Premium'a Yükselt
Filmbol Forum Film İndir BRRip XviD v The Knight Before Christmas (The Knight Before Christmas) - 2019 - TR - BRRip XviD | tt10060094

Filmbol TV kullanıma açıldı. Bu adresten giriş yapabilirsin: Giriş





The Knight Before Christmas (The Knight Before Christmas) - 2019 - TR - BRRip XviD | tt10060094
BroserBros
The Knight Before Christmas (The Knight Before Christmas) - 2019 - TR - BRRip XviD | tt10060094
2
791
  • Derecelendirme: 0/5 - 0 oy
  • 1
  • 2
  • 3
  • 4
  • 5
Konuyu Okuyanlar:1 Ziyaretçi
Şuan Online!
Filmin Yayınlanma Tarihi: 2019 
WWW
Rapor Et!
Şuan Online!
BroserBros Kurucu Admin
*******
Admin



 The Knight Before Christmas



Orta Çağ şövalyesi Sir Cole, bir büyücü tarafında Noel tatilinin ortasında bugünkü Ohio’ya ışınlanır. İyi kalpli bir öğretmen olan Brooke’un yolu talihsiz bir kaza sonucu Cole ile kesişir. Arabası ile Cole’e çarpan Brooke, genç adamı hastaneye götürür. Burada kendisini şovalye olarak tanıtan Cole’, kimseye kendisini inandıramaz. Doktorlar Cole”un kaza sonucu hafıza kaybı yaşadığını düşünür. Bu durumdan kendisini sorumlu tutan Brooke, bu süreçte Cole’e yardımcı olmaya çalışır. Bu sayede yakınlaşmaya başlayan ve birbirlerinden etkilenen Brooke ve Cole, karşılarına çıkan zorlukların üstesinden gelebilecek midir?

The Knight Before Christmas (2019) (The Knight Before Christmas) | tt10060094 Filmi Imdb'den 16,000 kişi tarafından oylandı ve 5,5 puan aldı. Bu film için editör puanı %62 olarak belirlendi. İyi Seyirler!

Teknik Detaylar

Kod :
General
Complete name                            : /home/BroserBros/Desktop/8/The.Knight.Before.Christmas.2019.BRRip.XviD.TR.Filmbol.avi
Format                                   : AVI
Format/Info                              : Audio Video Interleave
File size                                : 1.10 GiB
Duration                                 : 1 h 32 min
Overall bit rate                         : 1 706 kb/s
Writing application                      : VirtualDubMod 1.5.10.2 (build 2542/release)
Writing library                          : VirtualDubMod build 2542/release

Video
ID                                       : 0
Format                                   : MPEG-4 Visual
Format profile                           : Advanced [email protected]
Format settings                          : BVOP2 / Custom Matrix
Format settings, BVOP                    : 2
Format settings, QPel                    : No
Format settings, GMC                     : No warppoints
Format settings, Matrix                  : Custom
Muxing mode                              : Packed bitstream
Codec ID                                 : XVID
Codec ID/Hint                            : XviD
Duration                                 : 1 h 32 min
Bit rate                                 : 1 569 kb/s
Width                                    : 720 pixels
Height                                   : 352 pixels
Display aspect ratio                     : 2.045
Frame rate                               : 24.000 FPS
Color space                              : YUV
Chroma subsampling                       : 4:2:0
Bit depth                                : 8 bits
Scan type                                : Progressive
Compression mode                         : Lossy
Bits/(Pixel*Frame)                       : 0.258
Stream size                              : 1.02 GiB (92%)
Writing library                          : XviD 1.2.1 (UTC 2008-12-04)

Audio
ID                                       : 1
Format                                   : MPEG Audio
Format version                           : Version 1
Format profile                           : Layer 3
Format settings                          : Joint stereo / MS Stereo
Codec ID                                 : 55
Codec ID/Hint                            : MP3
Duration                                 : 1 h 32 min
Bit rate mode                            : Constant
Bit rate                                 : 128 kb/s
Channel(s)                               : 2 channels
Sampling rate                            : 48.0 kHz
Frame rate                               : 41.667 FPS (1152 SPF)
Compression mode                         : Lossy
Stream size                              : 84.8 MiB (8%)
Alignment                                : Aligned on interleaves
Interleave, duration                     : 42  ms (1.00 video frame)
Interleave, preload duration             : 504  ms
Writing library                          : LAME3.100
Encoding settings                        : -m j -V 4 -q 2 -lowpass 17 -b 128

Film Detayları


 The Knight Before Christmas

 The Knight Before Christmas

 The Knight Before Christmas


Film Fragmanı


Film İndir


Rar Şifresi: filmbol.org



Uptobox ile indir

1Fichier ile indir

1Fichier'den İndiremiyor musun? Tıklayın!












Şuan Online!
Rapor Et!
Şuan Online!
mehmetemin Uzman Üye
**
Uzman Üye
  • Konular0
  • Mesajlar10
  • Rep puanı 0
Paylaşım için teşekkürler.
Şuan Online!
Rapor Et!
Şuan Online!
BroserBros Kurucu Admin
*******
Admin
15.06.2021 Yönetici Notu:

Kırık linkler kontrol edildi, kaldırıldı ve yenilendi. Tüm linkler tamamen çalışır durumda.


Hızlı Menü: