Filmbol Forum Film İndir 1080P v Kayıp Gençlik (Run with the Hunted) - 2019 - TR+ORG - 1080P | tt6345894
Bildirimi Kapat
Merhaba , site giderlerini bir nebze olsun karşılamak adına link kısaltma servisleri kullanmaya başladık. İndirme linkleri sizi ouo.io adresinde yönlendirecek, 3 saniye geçtikten sonra Get Link butonuna tıklayarak linke ulaşacaksınız. Premium üyeler bu durumdan etkilenmeyecektir.


Premium Üyelik Al

Kayıp Gençlik (Run with the Hunted) - 2019 - TR+ORG - 1080P | tt6345894
TheSteeL
Kayıp Gençlik (Run with the Hunted) - 2019 - TR+ORG - 1080P | tt6345894
0
36
  • Derecelendirme: 0/5 - 0 oy
  • 1
  • 2
  • 3
  • 4
  • 5
Konuyu Okuyanlar:2 Ziyaretçi
Şuan Online!
Filmin Yayınlanma Tarihi: 2019 
Şuan Online!
TheSteeL Chief Executive Officer
******
CEO


 Kayıp Gençlik



Oscar, yaşıtlarına göre çok daha olgun bir çocuktur. Hayat onu eğitmiş ve kocaman bir adam haline getirmiştir. Annesi ve babasının olmaması da bunu tetikleyen en büyük nedendir. Oscar bir çok arkadaşa sahip olsa da onun için vazgeçilmez ve en sevdiği arkadaşı olan Loux için her şeyi yapabilir. Bu lafta kalmaz, Loux babası tarafından neredeyse öldürülmek üzereyken Oscar Loux'un babasını öldürür. Böylece Loux'u kurtarır fakat kendi başı yanar. Çareyi kaçmakta bulan Oscar bir daha dönmemek üzere gözlerden kaybolur. Aradan 15 yıl geçer. Loux iyi bir iş sahibi olmuş ve bir dedektifin yanında göreve gelmiştir. Onun aklında ise tek isim vardır; canını kurtaran Oscar'ı bulmak...

Kayıp Gençlik (2019) (Run with the Hunted) | tt6345894 Filmi Imdb'den 1000 kişi tarafından oylandı ve 5,2 puan aldı. Bu film için editör puanı %60 olarak belirlendi. İyi Seyirler!

Teknik Detaylar

Kod :
General
Unique ID                                : 58036883096329199141564100249090504914 (0x2BA97F422B520B5EC6F7B630FE33B8D2)
Complete name                            : /home/TheSteel/Desktop/5/Kayıp.Genclik.2019.1080p.WEB-DL.x264.TR.ENG.Filmbol.mkv
Format                                   : Matroska
Format version                           : Version 4
File size                                : 1.70 GiB
Duration                                 : 1 h 32 min
Overall bit rate                         : 2 621 kb/s
Movie name                               : Run with the Hunted - Kayıp Gençlik - 2019 | Filmbol.org
Encoded date                             : UTC 2021-06-08 12:26:26
Writing application                      : mkvmerge v31.0.0 ('Dolores In A Shoestand') 64-bit
Writing library                          : libebml v1.3.6 + libmatroska v1.4.9

Video
ID                                       : 1
Format                                   : AVC
Format/Info                              : Advanced Video Codec
Format profile                           : [email protected]
Format settings                          : CABAC / 2 Ref Frames
Format settings, CABAC                   : Yes
Format settings, Reference frames        : 2 frames
Codec ID                                 : V_MPEG4/ISO/AVC
Duration                                 : 1 h 32 min
Bit rate                                 : 2 235 kb/s
Width                                    : 1 920 pixels
Height                                   : 1 080 pixels
Display aspect ratio                     : 16:9
Frame rate mode                          : Constant
Frame rate                               : 23.976 (24000/1001) FPS
Color space                              : YUV
Chroma subsampling                       : 4:2:0
Bit depth                                : 8 bits
Scan type                                : Progressive
Bits/(Pixel*Frame)                       : 0.045
Stream size                              : 1.45 GiB (85%)
Title                                    : Run with the Hunted - Kayıp Gençlik - 2019 | Filmbol.org
Default                                  : Yes
Forced                                   : No

Audio #1
ID                                       : 2
Format                                   : AC-3
Format/Info                              : Audio Coding 3
Commercial name                          : Dolby Digital
Codec ID                                 : A_AC3
Duration                                 : 1 h 32 min
Bit rate mode                            : Constant
Bit rate                                 : 192 kb/s
Channel(s)                               : 2 channels
Channel layout                           : L R
Sampling rate                            : 48.0 kHz
Frame rate                               : 31.250 FPS (1536 SPF)
Compression mode                         : Lossy
Stream size                              : 127 MiB (7%)
Title                                    : Run with the Hunted - Kayıp Gençlik - 2019 | Filmbol.org
Language                                 : Turkish
Service kind                             : Complete Main
Default                                  : Yes
Forced                                   : No

Audio #2
ID                                       : 3
Format                                   : AC-3
Format/Info                              : Audio Coding 3
Commercial name                          : Dolby Digital
Codec ID                                 : A_AC3
Duration                                 : 1 h 32 min
Bit rate mode                            : Constant
Bit rate                                 : 192 kb/s
Channel(s)                               : 2 channels
Channel layout                           : L R
Sampling rate                            : 48.0 kHz
Frame rate                               : 31.250 FPS (1536 SPF)
Compression mode                         : Lossy
Stream size                              : 128 MiB (7%)
Title                                    : Run with the Hunted - Kayıp Gençlik - 2019 | Filmbol.org
Language                                 : English
Service kind                             : Complete Main
Default                                  : No
Forced                                   : No

Text
ID                                       : 4
Format                                   : UTF-8
Codec ID                                 : S_TEXT/UTF8
Codec ID/Info                            : UTF-8 Plain Text
Duration                                 : 1 h 25 min
Bit rate                                 : 41 b/s
Count of elements                        : 896
Stream size                              : 25.8 KiB (0%)
Title                                    : Run with the Hunted - Kayıp Gençlik - 2019 | Filmbol.org
Language                                 : Turkish
Default                                  : No
Forced                                   : No

Film Detayları


 Kayıp Gençlik

 Kayıp Gençlik

 Kayıp Gençlik


Film Fragmanı


Film Detayları



Zip Şifresi: filmbol.org Aşağıdaki butona tıklayarak kopyalabilirsiniz.


Uptobox ile indir

1Fichier ile indir

1Fichier'den İndiremiyor musun? Tıklayın!





Filmbol Cloud

Bunun için üzgünüz ancak, bu linke sadece premium üyeler erişebilir.




WWW


Hızlı Menü: