Filmbol Forum Film İndir BRRip XviD v Kayıp Gençlik (Run with the Hunted) - 2019 - TR - BRRip XviD | tt6345894
Bildirimi Kapat
Merhaba , site giderlerini bir nebze olsun karşılamak adına link kısaltma servisleri kullanmaya başladık. İndirme linkleri sizi ouo.io adresinde yönlendirecek, 3 saniye geçtikten sonra Get Link butonuna tıklayarak linke ulaşacaksınız. Premium üyeler bu durumdan etkilenmeyecektir.


Premium Üyelik Al

Kayıp Gençlik (Run with the Hunted) - 2019 - TR - BRRip XviD | tt6345894
TheSteeL
Kayıp Gençlik (Run with the Hunted) - 2019 - TR - BRRip XviD | tt6345894
0
31
  • Derecelendirme: 0/5 - 0 oy
  • 1
  • 2
  • 3
  • 4
  • 5
Konuyu Okuyanlar:3 Ziyaretçi
Şuan Online!
Filmin Yayınlanma Tarihi: 2019 
Şuan Online!
TheSteeL Chief Executive Officer
******
CEO


 Kayıp Gençlik



Oscar, yaşıtlarına göre çok daha olgun bir çocuktur. Hayat onu eğitmiş ve kocaman bir adam haline getirmiştir. Annesi ve babasının olmaması da bunu tetikleyen en büyük nedendir. Oscar bir çok arkadaşa sahip olsa da onun için vazgeçilmez ve en sevdiği arkadaşı olan Loux için her şeyi yapabilir. Bu lafta kalmaz, Loux babası tarafından neredeyse öldürülmek üzereyken Oscar Loux'un babasını öldürür. Böylece Loux'u kurtarır fakat kendi başı yanar. Çareyi kaçmakta bulan Oscar bir daha dönmemek üzere gözlerden kaybolur. Aradan 15 yıl geçer. Loux iyi bir iş sahibi olmuş ve bir dedektifin yanında göreve gelmiştir. Onun aklında ise tek isim vardır; canını kurtaran Oscar'ı bulmak...

Kayıp Gençlik (2019) (Run with the Hunted) | tt6345894 Filmi Imdb'den 1000 kişi tarafından oylandı ve 5,2 puan aldı. Bu film için editör puanı %60 olarak belirlendi. İyi Seyirler!

Teknik Detaylar

Kod :
General
Unique ID                                : 109826253470133765522741373215770869482 (0x529FC45BABF554590608357C6F0AFEEA)
Complete name                            : /home/TheSteel/Desktop/5/Kayıp.Genclik.2019.HDRip.XViD.TR.Filmbol.avi
Format                                   : Matroska
Format version                           : Version 4
File size                                : 905 MiB
Duration                                 : 1 h 32 min
Overall bit rate                         : 1 362 kb/s
Movie name                               : Run with the Hunted - Kayıp Gençlik - 2019 | Filmbol.org
Encoded date                             : UTC 2021-06-08 12:24:36
Writing application                      : mkvmerge v31.0.0 ('Dolores In A Shoestand') 64-bit
Writing library                          : libebml v1.3.6 + libmatroska v1.4.9
FileExtension_Invalid                    : mkv mk3d mka mks

Video
ID                                       : 1
Format                                   : MPEG-4 Visual
Format profile                           : Advanced [email protected]
Format settings                          : BVOP2
Format settings, BVOP                    : 2
Format settings, QPel                    : No
Format settings, GMC                     : No warppoints
Format settings, Matrix                  : Default (MPEG)
Muxing mode                              : Packed bitstream
Codec ID                                 : V_MS/VFW/FOURCC / XVID
Codec ID/Hint                            : XviD
Duration                                 : 1 h 32 min
Bit rate                                 : 1 233 kb/s
Width                                    : 720 pixels
Height                                   : 404 pixels
Display aspect ratio                     : 16:9
Frame rate mode                          : Constant
Frame rate                               : 23.976 (24000/1001) FPS
Original frame rate                      : 23.976 (23976/1000) FPS
Color space                              : YUV
Chroma subsampling                       : 4:2:0
Bit depth                                : 8 bits
Scan type                                : Progressive
Compression mode                         : Lossy
Bits/(Pixel*Frame)                       : 0.177
Stream size                              : 819 MiB (91%)
Title                                    : Run with the Hunted - Kayıp Gençlik - 2019 | Filmbol.org
Writing library                          : XviD 64
Default                                  : Yes
Forced                                   : No

Audio
ID                                       : 2
Format                                   : MPEG Audio
Format version                           : Version 1
Format profile                           : Layer 3
Format settings                          : Joint stereo / MS Stereo
Codec ID                                 : A_MPEG/L3
Codec ID/Hint                            : MP3
Duration                                 : 1 h 32 min
Bit rate mode                            : Constant
Bit rate                                 : 128 kb/s
Channel(s)                               : 2 channels
Sampling rate                            : 48.0 kHz
Frame rate                               : 41.667 FPS (1152 SPF)
Compression mode                         : Lossy
Stream size                              : 84.7 MiB (9%)
Title                                    : Run with the Hunted - Kayıp Gençlik - 2019 | Filmbol.org
Default                                  : Yes
Forced                                   : No

Film Detayları


 Kayıp Gençlik

 Kayıp Gençlik

 Kayıp Gençlik


Film Fragmanı


Film Detayları



Zip Şifresi: filmbol.org Aşağıdaki butona tıklayarak kopyalabilirsiniz.



Uptobox ile indir

1Fichier ile indir

1Fichier'den İndiremiyor musun? Tıklayın!





Filmbol Cloud

Bunun için üzgünüz ancak, bu linke sadece premium üyeler erişebilir.




WWW


Hızlı Menü: