Filmbol Forum Film İndir FHD - FULL HD v Dora ve Kayıp Altın Şehri (Dora and the Lost City of Gold) - 2019 - TR+ORG - FHD - x264 | tt7547410
Bildirimi Kapat
Merhaba , site giderlerini bir nebze olsun karşılamak adına link kısaltma servisleri kullanmaya başladık. İndirme linkleri sizi ouo.io adresinde yönlendirecek, 3 saniye geçtikten sonra Get Link butonuna tıklayarak linke ulaşacaksınız. Premium üyeler bu durumdan etkilenmeyecektir.


Premium Üyelik Al

Dora ve Kayıp Altın Şehri (Dora and the Lost City of Gold) - 2019 - TR+ORG - FHD - x264 | tt7547410
BroserBros
Dora ve Kayıp Altın Şehri (Dora and the Lost City of Gold) - 2019 - TR+ORG - FHD - x264 | tt7547410
0
28
  • Derecelendirme: 0/5 - 0 oy
  • 1
  • 2
  • 3
  • 4
  • 5
Konuyu Okuyanlar:1 Ziyaretçi
Şuan Online!
Filmin Yayınlanma Tarihi: 2019 
Şuan Online!
BroserBros Kurucu Admin
*******
Admin


 Dora ve Kayıp Altın Şehri



Dora, doğayla iç içe büyümüş bir kızdır. Hayatının büyük bölümünü ailesiyle birlikte ormanları keşfederek ve doğayla iç içe geçirmiştir. Ancak şimdi Dora’nın önünde onu balta girmemiş ormanlardan çok daha fazla korkutan bir macera vardır ve bu maceradan kaçma şansı yoktur. Artık liseye gitmek zorundadır. Her zaman bir kaşifin ruhunu taşıyan genç Dora hızla kendine arkadaşlar bulur. En yakın arkadaşı olan maymun Boots, Diego ve bir grup ayaktakımı kısa sürede Dora’nın en yakın arkadaşı olur. Yeni arkadaş grubu, genç Dora’nın ailesini kurtarmak ve kayıp İnka uygarlığının arkasındaki tahmin edilemez gizemi çözmek için rengarenk bir maceraya atılırlar…

Dora ve Kayıp Altın Şehri (2019) (Dora and the Lost City of Gold) | tt7547410 Filmi Imdb'den 30,000 kişi tarafından oylandı ve 6,1 puan aldı. Bu film için editör puanı %68 olarak belirlendi. İyi Seyirler!

Teknik Detaylar

Kod :
General
Unique ID                                : 258692541687413452708992743350008050953 (0xC29E5F09C0564EAE267AF509C26C7509)
Complete name                            : /home/BroserBros/Desktop/7/Dora.Ve.Kayıp.Altın.Şehri.2019.FHD.BluRay.x264.TR.ENG.Filmbol.mkv
Format                                   : Matroska
Format version                           : Version 4
File size                                : 4.22 GiB
Duration                                 : 1 h 42 min
Overall bit rate                         : 5 896 kb/s
Movie name                               : Dora ve Kayıp Altın Şehri - Dora and The Lost City of Gold - 2019 | Filmbol.org
Encoded date                             : UTC 2021-06-12 15:32:34
Writing application                      : mkvmerge v53.0.0 ('Fool's Gold') 64-bit
Writing library                          : libebml v1.4.1 + libmatroska v1.6.2
Cover                                    : Yes
Attachments                              : small_cover.jpg / small_cover_land.jpg / cover.jpg / cover_land.jpg

Video
ID                                       : 1
Format                                   : AVC
Format/Info                              : Advanced Video Codec
Format profile                           : [email protected]
Format settings                          : CABAC / 4 Ref Frames
Format settings, CABAC                   : Yes
Format settings, Reference frames        : 4 frames
Codec ID                                 : V_MPEG4/ISO/AVC
Duration                                 : 1 h 42 min
Bit rate                                 : 5 126 kb/s
Width                                    : 1 920 pixels
Height                                   : 1 080 pixels
Display aspect ratio                     : 16:9
Frame rate mode                          : Constant
Frame rate                               : 23.976 FPS
Color space                              : YUV
Chroma subsampling                       : 4:2:0
Bit depth                                : 8 bits
Scan type                                : Progressive
Bits/(Pixel*Frame)                       : 0.103
Stream size                              : 3.67 GiB (87%)
Title                                    : FHD - Filmbol.org
Language                                 : English
Default                                  : Yes
Forced                                   : No
Color range                              : Limited
Color primaries                          : BT.709
Transfer characteristics                 : BT.709
Matrix coefficients                      : BT.709

Audio #1
ID                                       : 2
Format                                   : AC-3
Format/Info                              : Audio Coding 3
Commercial name                          : Dolby Digital
Codec ID                                 : A_AC3
Duration                                 : 1 h 42 min
Bit rate mode                            : Constant
Bit rate                                 : 384 kb/s
Channel(s)                               : 6 channels
Channel layout                           : L R C LFE Ls Rs
Sampling rate                            : 48.0 kHz
Frame rate                               : 31.250 FPS (1536 SPF)
Compression mode                         : Lossy
Stream size                              : 281 MiB (7%)
Title                                    : Türkçe - Filmbol.org
Language                                 : Turkish
Service kind                             : Complete Main
Default                                  : Yes
Forced                                   : No

Audio #2
ID                                       : 3
Format                                   : AC-3
Format/Info                              : Audio Coding 3
Commercial name                          : Dolby Digital
Codec ID                                 : A_AC3
Duration                                 : 1 h 42 min
Bit rate mode                            : Constant
Bit rate                                 : 384 kb/s
Channel(s)                               : 6 channels
Channel layout                           : L R C LFE Ls Rs
Sampling rate                            : 48.0 kHz
Frame rate                               : 31.250 FPS (1536 SPF)
Compression mode                         : Lossy
Stream size                              : 281 MiB (7%)
Title                                    : Orijinal Dil - Filmbol.org
Language                                 : English
Service kind                             : Complete Main
Default                                  : No
Forced                                   : No

Text #1
ID                                       : 4
Format                                   : UTF-8
Codec ID                                 : S_TEXT/UTF8
Codec ID/Info                            : UTF-8 Plain Text
Duration                                 : 1 h 40 min
Bit rate                                 : 0 b/s
Count of elements                        : 30
Stream size                              : 732 Bytes (0%)
Title                                    : Türkçe - Filmbol.org
Language                                 : Turkish
Default                                  : Yes
Forced                                   : Yes

Text #2
ID                                       : 5
Format                                   : UTF-8
Codec ID                                 : S_TEXT/UTF8
Codec ID/Info                            : UTF-8 Plain Text
Duration                                 : 1 h 41 min
Bit rate                                 : 56 b/s
Count of elements                        : 1411
Stream size                              : 41.7 KiB (0%)
Title                                    : Türkçe - Filmbol.org
Language                                 : Turkish
Default                                  : No
Forced                                   : No

Film Detayları


 Dora ve Kayıp Altın Şehri

 Dora ve Kayıp Altın Şehri

 Dora ve Kayıp Altın Şehri


Film Fragmanı


Film Detayları



Zip Şifresi: filmbol.org Aşağıdaki butona tıklayarak kopyalabilirsiniz.





Filmbol Cloud

Bunun için üzgünüz ancak, bu linke sadece premium üyeler erişebilir.




WWW


Hızlı Menü: