⤤ Premium'a Yükselt
Filmbol Forum Film İndir BRRip XviD v Dora ve Kayıp Altın Şehri (Dora and the Lost City of Gold) - 2019 - TR - BRRip XviD | tt7547410

Filmbol TV kullanıma açıldı. Bu adresten giriş yapabilirsin: Giriş





Dora ve Kayıp Altın Şehri (Dora and the Lost City of Gold) - 2019 - TR - BRRip XviD | tt7547410
BroserBros
Dora ve Kayıp Altın Şehri (Dora and the Lost City of Gold) - 2019 - TR - BRRip XviD | tt7547410
7
1187
  • Derecelendirme: 0/5 - 0 oy
  • 1
  • 2
  • 3
  • 4
  • 5
Konuyu Okuyanlar:1 Ziyaretçi
Şuan Online!
Filmin Yayınlanma Tarihi: 2019 
WWW
Rapor Et!
Şuan Online!
BroserBros Kurucu Admin
*******
Admin



 Dora ve Kayıp Altın Şehri



Dora, doğayla iç içe büyümüş bir kızdır. Hayatının büyük bölümünü ailesiyle birlikte ormanları keşfederek ve doğayla iç içe geçirmiştir. Ancak şimdi Dora’nın önünde onu balta girmemiş ormanlardan çok daha fazla korkutan bir macera vardır ve bu maceradan kaçma şansı yoktur. Artık liseye gitmek zorundadır. Her zaman bir kaşifin ruhunu taşıyan genç Dora hızla kendine arkadaşlar bulur. En yakın arkadaşı olan maymun Boots, Diego ve bir grup ayaktakımı kısa sürede Dora’nın en yakın arkadaşı olur. Yeni arkadaş grubu, genç Dora’nın ailesini kurtarmak ve kayıp İnka uygarlığının arkasındaki tahmin edilemez gizemi çözmek için rengarenk bir maceraya atılırlar…

Dora ve Kayıp Altın Şehri (2019) (Dora and the Lost City of Gold) | tt7547410 Filmi Imdb'den 30,000 kişi tarafından oylandı ve 6,1 puan aldı. Bu film için editör puanı %68 olarak belirlendi. İyi Seyirler!

Teknik Detaylar

Kod :
General
Complete name                            : /home/BroserBros/Desktop/7/Dora.Ve.Kayıp.Altın.Şehri.2019.BRRip.XviD.TR.Filmbol.avi
Format                                   : AVI
Format/Info                              : Audio Video Interleave
File size                                : 945 MiB
Duration                                 : 1 h 42 min
Overall bit rate                         : 1 290 kb/s

Video
ID                                       : 0
Format                                   : MPEG-4 Visual
Format profile                           : Advanced [email protected]
Format settings                          : BVOP2
Format settings, BVOP                    : 2
Format settings, QPel                    : No
Format settings, GMC                     : No warppoints
Format settings, Matrix                  : Default (H.263)
Codec ID                                 : DIVX
Codec ID/Info                            : Project Mayo
Codec ID/Hint                            : DivX 4
Duration                                 : 1 h 42 min
Bit rate                                 : 1 084 kb/s
Width                                    : 896 pixels
Height                                   : 374 pixels
Display aspect ratio                     : 2.40:1
Frame rate                               : 23.976 (24000/1001) FPS
Color space                              : YUV
Chroma subsampling                       : 4:2:0
Bit depth                                : 8 bits
Scan type                                : Progressive
Compression mode                         : Lossy
Bits/(Pixel*Frame)                       : 0.135
Stream size                              : 795 MiB (84%)
Writing library                          : XviD 67

Audio
ID                                       : 1
Format                                   : MPEG Audio
Format version                           : Version 1
Format profile                           : Layer 3
Codec ID                                 : 55
Codec ID/Hint                            : MP3
Duration                                 : 1 h 42 min
Bit rate mode                            : Constant
Bit rate                                 : 192 kb/s
Channel(s)                               : 2 channels
Sampling rate                            : 48.0 kHz
Compression mode                         : Lossy
Stream size                              : 141 MiB (15%)
Alignment                                : Aligned on interleaves
Interleave, duration                     : 24  ms (0.58 video frame)

Film Detayları


 Dora ve Kayıp Altın Şehri

 Dora ve Kayıp Altın Şehri

 Dora ve Kayıp Altın Şehri


Film Fragmanı


Film İndir


Rar Şifresi: filmbol.org



Uptobox ile indir

1Fichier ile indir

1Fichier'den İndiremiyor musun? Tıklayın!












Şuan Offine!
Rapor Et!
Şuan Offine!
sectechno Premium Üye
****
  • Konular19
  • Mesajlar204
  • Rep puanı 47
Teşekkürler BroserBros.İyi çalışmalar.
Şuan Offine!
Rapor Et!
Şuan Offine!
ismahil Üye
*
Üye
  • Konular0
  • Mesajlar4
  • Rep puanı 0
ÇOCUKLARA İZLETECEM
Şuan Offine!
Rapor Et!
Şuan Offine!
Royk Üye
*
Üye
  • Konular0
  • Mesajlar1
  • Rep puanı 0
Çok teşekkürler!
Şuan Offine!
Rapor Et!
Şuan Offine!
ercan Uzman Üye
**
Uzman Üye
  • Konular0
  • Mesajlar24
  • Rep puanı 0
tşk...
Şuan Online!
Rapor Et!
Şuan Online!
BroserBros Kurucu Admin
*******
Admin
13.06.2021 Yönetici Notu:

Kırık linkler kontrol edildi, kaldırıldı ve yenilendi. Tüm linkler tamamen çalışır durumda.
Şuan Offine!
Rapor Et!
Şuan Offine!
Muha Uzman Üye
**
Uzman Üye
  • Konular0
  • Mesajlar27
  • Rep puanı 0
Harikasin admin
Şuan Offine!
Rapor Et!
Şuan Offine!
myzrail Üye
*
Üye
  • Konular0
  • Mesajlar387
  • Rep puanı 0
eline saglık


Hızlı Menü: