Filmbol Forum Film İndir 720P v Karnaval (Carnaval) - 2021 - TR+ORG - 720P | tt14074470
Bildirimi Kapat
Merhaba , site giderlerini bir nebze olsun karşılamak adına link kısaltma servisleri kullanmaya başladık. İndirme linkleri sizi ouo.io adresinde yönlendirecek, 3 saniye geçtikten sonra Get Link butonuna tıklayarak linke ulaşacaksınız. Premium üyeler bu durumdan etkilenmeyecektir.


Premium Üyelik Al

Karnaval (Carnaval) - 2021 - TR+ORG - 720P | tt14074470
TheSteeL
Karnaval (Carnaval) - 2021 - TR+ORG - 720P | tt14074470
0
32
  • Derecelendirme: 0/5 - 0 oy
  • 1
  • 2
  • 3
  • 4
  • 5
Konuyu Okuyanlar:1 Ziyaretçi
Şuan Online!
Filmin Yayınlanma Tarihi: 2021 
Şuan Online!
TheSteeL Chief Executive Officer
******
CEO


 Karnaval



Sosyal medya günümüzde bir çoğumuzun hayatını resmen ele geçirmiş durumda. Nina'da bu durumdan nasibini almış bir sosyal medya bağımlısıdır. Ancak onun diğer insanlardan farkı; bu işte zorunlu olarak devam etme gereksinimidir. Yani Nina bir sosyal medya fenomenidir ve paylaşımlarını asla durdurmamalıdır. Bu yüzden kendi hayatında işler pek yolunda gitmez. Yakın bir zamanda erkek arkadaşı onu aldatır ve video bir anda viral olur. Videoyu izleyen Nina, hayatına çekidüzen getirmesi gerektiğine inanır ve tüm kız arkadaşlarını toplamak bir karnaval'a gidip orada her şeyi unutup eğlenmek ister. Karnavaldan sonra hayatının sadece sosyal medyadan ibaret olmadığını anlar...

Karnaval (2021) (Carnaval) | tt14074470 Filmi Imdb'den 500 kişi tarafından oylandı ve 3,7 puan aldı. Bu film için editör puanı %45 olarak belirlendi. İyi Seyirler!

Teknik Detaylar

Kod :
General
Unique ID                                : 196345038746050809430676632273907221879 (0x93B6ADD0038A42E9AEFB6AEC8D660577)
Complete name                            : /home/TheSteel/Desktop/2/Carnaval.2021.720p.NF.WEB-DL.x264.TR.POR.Filmbol.mkv
Format                                   : Matroska
Format version                           : Version 4
File size                                : 1.15 GiB
Duration                                 : 1 h 35 min
Overall bit rate                         : 1 728 kb/s
Movie name                               : Carnaval - 2021 | Filmbol.org
Encoded date                             : UTC 2021-06-08 12:00:12
Writing application                      : mkvmerge v31.0.0 ('Dolores In A Shoestand') 64-bit
Writing library                          : libebml v1.3.6 + libmatroska v1.4.9

Video
ID                                       : 1
Format                                   : AVC
Format/Info                              : Advanced Video Codec
Format profile                           : [email protected]
Format settings                          : CABAC / 4 Ref Frames
Format settings, CABAC                   : Yes
Format settings, Reference frames        : 4 frames
Codec ID                                 : V_MPEG4/ISO/AVC
Duration                                 : 1 h 35 min
Bit rate                                 : 1 150 kb/s
Width                                    : 1 280 pixels
Height                                   : 714 pixels
Display aspect ratio                     : 16:9
Frame rate mode                          : Constant
Frame rate                               : 24.000 FPS
Color space                              : YUV
Chroma subsampling                       : 4:2:0
Bit depth                                : 8 bits
Scan type                                : Progressive
Bits/(Pixel*Frame)                       : 0.052
Stream size                              : 782 MiB (67%)
Title                                    : Carnaval - 2021 | Filmbol.org
Writing library                          : x264 core 161
Encoding settings                        : cabac=1 / ref=4 / deblock=1:-1:-1 / analyse=0x3:0x133 / me=umh / subme=9 / psy=1 / psy_rd=1.00:0.15 / mixed_ref=1 / me_range=24 / chroma_me=1 / trellis=2 / 8x8dct=1 / cqm=0 / deadzone=21,11 / fast_pskip=0 / chroma_qp_offset=-3 / threads=22 / lookahead_threads=1 / sliced_threads=0 / nr=0 / decimate=1 / interlaced=0 / bluray_compat=0 / constrained_intra=0 / bframes=3 / b_pyramid=2 / b_adapt=2 / b_bias=0 / direct=3 / weightb=1 / open_gop=0 / weightp=2 / keyint=250 / keyint_min=23 / scenecut=40 / intra_refresh=0 / rc_lookahead=60 / rc=2pass / mbtree=1 / bitrate=1150 / ratetol=1.0 / qcomp=0.60 / qpmin=0 / qpmax=69 / qpstep=4 / cplxblur=20.0 / qblur=0.5 / vbv_maxrate=31250 / vbv_bufsize=31250 / nal_hrd=none / filler=0 / ip_ratio=1.40 / aq=1:1.00
Default                                  : Yes
Forced                                   : No

Audio #1
ID                                       : 2
Format                                   : AC-3
Format/Info                              : Audio Coding 3
Commercial name                          : Dolby Digital
Codec ID                                 : A_AC3
Duration                                 : 1 h 35 min
Bit rate mode                            : Constant
Bit rate                                 : 384 kb/s
Channel(s)                               : 6 channels
Channel layout                           : L R C LFE Ls Rs
Sampling rate                            : 48.0 kHz
Frame rate                               : 31.250 FPS (1536 SPF)
Compression mode                         : Lossy
Stream size                              : 261 MiB (22%)
Title                                    : Carnaval - 2021 | Filmbol.org
Language                                 : Turkish
Service kind                             : Complete Main
Default                                  : Yes
Forced                                   : No

Audio #2
ID                                       : 3
Format                                   : AC-3
Format/Info                              : Audio Coding 3
Commercial name                          : Dolby Digital
Codec ID                                 : A_AC3
Duration                                 : 1 h 35 min
Bit rate mode                            : Constant
Bit rate                                 : 192 kb/s
Channel(s)                               : 2 channels
Channel layout                           : L R
Sampling rate                            : 48.0 kHz
Frame rate                               : 31.250 FPS (1536 SPF)
Compression mode                         : Lossy
Stream size                              : 131 MiB (11%)
Title                                    : Carnaval - 2021 | Filmbol.org
Language                                 : Portuguese
Service kind                             : Complete Main
Default                                  : No
Forced                                   : No

Text #1
ID                                       : 4
Format                                   : UTF-8
Codec ID                                 : S_TEXT/UTF8
Codec ID/Info                            : UTF-8 Plain Text
Duration                                 : 1 h 34 min
Bit rate                                 : 4 b/s
Count of elements                        : 94
Stream size                              : 3.03 KiB (0%)
Title                                    : Carnaval - 2021 | Filmbol.org
Language                                 : Turkish
Default                                  : Yes
Forced                                   : Yes

Text #2
ID                                       : 5
Format                                   : UTF-8
Codec ID                                 : S_TEXT/UTF8
Codec ID/Info                            : UTF-8 Plain Text
Duration                                 : 1 h 34 min
Bit rate                                 : 60 b/s
Count of elements                        : 1319
Stream size                              : 41.6 KiB (0%)
Title                                    : Carnaval - 2021 | Filmbol.org
Language                                 : Turkish
Default                                  : No
Forced                                   : No

Film Detayları


 Karnaval

 Karnaval

 Karnaval


Film Fragmanı


Film Detayları



Zip Şifresi: filmbol.org Aşağıdaki butona tıklayarak kopyalabilirsiniz.

Mega linkiniz:


Uptobox ile indir

1Fichier ile indir

1Fichier'den İndiremiyor musun? Tıklayın!








Bunun için üzgünüz ancak, bu linke sadece premium üyeler erişebilir.

Filmbol Cloud





WWW


Hızlı Menü: