Filmbol Forum Film İndir BRRip XviD v Karnaval (Carnaval) - 2021 - TR - BRRip XviD | tt14074470
Bildirimi Kapat
Merhaba , site giderlerini bir nebze olsun karşılamak adına link kısaltma servisleri kullanmaya başladık. İndirme linkleri sizi ouo.io adresinde yönlendirecek, 3 saniye geçtikten sonra Get Link butonuna tıklayarak linke ulaşacaksınız. Premium üyeler bu durumdan etkilenmeyecektir.


Premium Üyelik Al

Karnaval (Carnaval) - 2021 - TR - BRRip XviD | tt14074470
TheSteeL
Karnaval (Carnaval) - 2021 - TR - BRRip XviD | tt14074470
0
32
  • Derecelendirme: 0/5 - 0 oy
  • 1
  • 2
  • 3
  • 4
  • 5
Konuyu Okuyanlar:1 Ziyaretçi
Şuan Online!
Filmin Yayınlanma Tarihi: 2021 
Şuan Online!
TheSteeL Chief Executive Officer
******
CEO


 Karnaval



Sosyal medya günümüzde bir çoğumuzun hayatını resmen ele geçirmiş durumda. Nina'da bu durumdan nasibini almış bir sosyal medya bağımlısıdır. Ancak onun diğer insanlardan farkı; bu işte zorunlu olarak devam etme gereksinimidir. Yani Nina bir sosyal medya fenomenidir ve paylaşımlarını asla durdurmamalıdır. Bu yüzden kendi hayatında işler pek yolunda gitmez. Yakın bir zamanda erkek arkadaşı onu aldatır ve video bir anda viral olur. Videoyu izleyen Nina, hayatına çekidüzen getirmesi gerektiğine inanır ve tüm kız arkadaşlarını toplamak bir karnaval'a gidip orada her şeyi unutup eğlenmek ister. Karnavaldan sonra hayatının sadece sosyal medyadan ibaret olmadığını anlar...

Karnaval (2021) (Carnaval) | tt14074470 Filmi Imdb'den 500 kişi tarafından oylandı ve 3,7 puan aldı. Bu film için editör puanı %45 olarak belirlendi. İyi Seyirler!

Teknik Detaylar

Kod :
General
Unique ID                                : 78734453364351034103010236336376621343 (0x3B3BB4427307ADD61FAEC1ED9303A91F)
Complete name                            : /home/TheSteel/Desktop/2/Carnaval.2021.HDRip.XViD.TR.Filmbol.avi
Format                                   : Matroska
Format version                           : Version 4
File size                                : 1.14 GiB
Duration                                 : 1 h 35 min
Overall bit rate                         : 1 718 kb/s
Movie name                               : Carnaval - 2021 | Filmbol.org
Encoded date                             : UTC 2021-06-08 11:59:13
Writing application                      : mkvmerge v31.0.0 ('Dolores In A Shoestand') 64-bit
Writing library                          : libebml v1.3.6 + libmatroska v1.4.9
FileExtension_Invalid                    : mkv mk3d mka mks

Video
ID                                       : 1
Format                                   : MPEG-4 Visual
Format profile                           : [email protected]
Format settings, BVOP                    : No
Format settings, QPel                    : No
Format settings, GMC                     : No warppoints
Format settings, Matrix                  : Default (H.263)
Codec ID                                 : V_MS/VFW/FOURCC / XVID
Codec ID/Hint                            : XviD
Duration                                 : 1 h 35 min
Bit rate                                 : 1 588 kb/s
Width                                    : 720 pixels
Height                                   : 400 pixels
Display aspect ratio                     : 16:9
Frame rate mode                          : Constant
Frame rate                               : 24.000 FPS
Color space                              : YUV
Chroma subsampling                       : 4:2:0
Bit depth                                : 8 bits
Scan type                                : Progressive
Compression mode                         : Lossy
Bits/(Pixel*Frame)                       : 0.230
Stream size                              : 1.05 GiB (92%)
Title                                    : Carnaval - 2021 | Filmbol.org
Writing library                          : Lavc58.35.100
Default                                  : Yes
Forced                                   : No

Audio
ID                                       : 2
Format                                   : MPEG Audio
Format version                           : Version 1
Format profile                           : Layer 3
Format settings                          : Joint stereo / MS Stereo
Codec ID                                 : A_MPEG/L3
Codec ID/Hint                            : MP3
Duration                                 : 1 h 35 min
Bit rate mode                            : Constant
Bit rate                                 : 128 kb/s
Channel(s)                               : 2 channels
Sampling rate                            : 48.0 kHz
Frame rate                               : 41.667 FPS (1152 SPF)
Compression mode                         : Lossy
Stream size                              : 87.0 MiB (7%)
Title                                    : Carnaval - 2021 | Filmbol.org
Default                                  : Yes
Forced                                   : No

Film Detayları


 Karnaval

 Karnaval

 Karnaval


Film Fragmanı


Film Detayları



Zip Şifresi: filmbol.org Aşağıdaki butona tıklayarak kopyalabilirsiniz.



Uptobox ile indir

1Fichier ile indir

1Fichier'den İndiremiyor musun? Tıklayın!





Filmbol Cloud

Bunun için üzgünüz ancak, bu linke sadece premium üyeler erişebilir.




WWW


Hızlı Menü: