Filmbol Forum Film İndir FHD - FULL HD v Ben Çağırmadım (Blithe Spirit) - 2020 - TR+ORG - FHD - x264 | tt10334148

Premium Üyelik Al

Bildirimi Kapat
Mega linklerinin şikayet edilmemesi için global erişime kapatıp sadece yorum yapanlara açıyoruz. Bu linkleri gizleme işlemini mecburen yapıyoruz ve yorum yapmanızın siteye değil size faydası vardır. Teşekkürler yazmayı çok görüp, Random/Spam/Anlamsız mesajlar atarak forumu kirletip Mega linklerini açmaya çalışan kullanıcılara süresiz ban atacağız.


Ben Çağırmadım (Blithe Spirit) - 2020 - TR+ORG - FHD - x264 | tt10334148
TheSteeL
Ben Çağırmadım (Blithe Spirit) - 2020 - TR+ORG - FHD - x264 | tt10334148
0
8
  • Derecelendirme: 0/5 - 0 oy
  • 1
  • 2
  • 3
  • 4
  • 5
Konuyu Okuyanlar:1 Ziyaretçi
Şuan Online!
Filmin Yayınlanma Tarihi: 2020 
WWW
Şuan Online!
TheSteeL Süper Moderatör
*****
Süper Moderatör



 Ben Çağırmadım



Blithe Spirit, başarıl bir yazardır. Kaleme aldığı şeyler genellikle dünya genelinde okunur ve çoksatar. Fakat Blithe'nin başına kötü bir olay gelir ve karısı hayatını kaybeder. Varlıklı bir adam olan Blithe, bu süreç içerisinde hiç kitap yazamaz. Uzun bir süre sonra bu durumun bu şekilde devam edemeyeceğini anlar ve Ruth isminde bir kadın ile evlenir. Ruth'dan beklentisi eski karısının yerini alabilmesi veya onu unutturabilmesidir. Bu sayede Blithe eski işlerine tekrar dönecek ve iyi kitaplar yazmaya devam edecektir. Fakat beklediği sonucu alamaz. Karısını asla unutamıyor, Ruth'da bu konuda ona yardımcı olamıyordu. Bunun üzerine Blithe evine ruhlar ile ilgilenen Madame Arcat'ı davet eder. Burada ruhlar ile ilgili bir seans alan Bithe, seansın sonunda karısından kurtulmayı beklerken karısı bir anda yanına gelir. Üstelik karısını sadece kendi görmektedir ve diğerlerini bu konuda ikna etmekte güçlük çekmektedir...

Ben Çağırmadım (2020) (Blithe Spirit) | tt10334148 Filmi Imdb'den 4000 kişi tarafından oylandı ve 5,4 puan aldı. Bu film için editör puanı %60 olarak belirlendi. İyi Seyirler!

Teknik Detaylar

Kod :
General
Unique ID                                : 294299618170038587896653446466592288593 (0xDD680B73220EAC397B1E57DD35D7AF51)
Complete name                            : /home/TheSteel/Desktop/1/Ben.Cagirmadim.2020.FHD.BluRay.x264.TR.ENG.Filmbol.mkv
Format                                   : Matroska
Format version                           : Version 4
File size                                : 9.97 GiB
Duration                                 : 1 h 39 min
Overall bit rate                         : 14.3 Mb/s
Movie name                               : Blithe Spirit - Ben Çağırmadım - 2020 | Filmbol.org
Encoded date                             : UTC 2021-06-08 11:40:02
Writing application                      : mkvmerge v31.0.0 ('Dolores In A Shoestand') 64-bit
Writing library                          : libebml v1.3.6 + libmatroska v1.4.9

Video
ID                                       : 1
Format                                   : AVC
Format/Info                              : Advanced Video Codec
Format profile                           : [email protected]
Format settings                          : CABAC / 5 Ref Frames
Format settings, CABAC                   : Yes
Format settings, Reference frames        : 5 frames
Codec ID                                 : V_MPEG4/ISO/AVC
Duration                                 : 1 h 39 min
Bit rate                                 : 13.5 Mb/s
Width                                    : 1 920 pixels
Height                                   : 802 pixels
Display aspect ratio                     : 2.40:1
Frame rate mode                          : Constant
Frame rate                               : 23.976 (24000/1001) FPS
Color space                              : YUV
Chroma subsampling                       : 4:2:0
Bit depth                                : 8 bits
Scan type                                : Progressive
Bits/(Pixel*Frame)                       : 0.366
Stream size                              : 9.39 GiB (94%)
Title                                    : Blithe Spirit - Ben Çağırmadım - 2020 | Filmbol.org
Writing library                          : x264 core 146 -from seleZen
Encoding settings                        : cabac=1 / ref=5 / deblock=1:-2:-2 / analyse=0x3:0x133 / me=umh / subme=10 / psy=1 / psy_rd=1.04:0.06 / mixed_ref=1 / me_range=32 / chroma_me=1 / trellis=2 / 8x8dct=1 / cqm=0 / deadzone=21,11 / fast_pskip=0 / chroma_qp_offset=-3 / threads=36 / lookahead_threads=6 / sliced_threads=0 / nr=0 / decimate=0 / interlaced=0 / bluray_compat=0 / constrained_intra=0 / bframes=9 / b_pyramid=2 / b_adapt=2 / b_bias=0 / direct=3 / weightb=1 / open_gop=0 / weightp=2 / keyint=240 / keyint_min=23 / scenecut=40 / intra_refresh=0 / rc_lookahead=50 / rc=2pass / mbtree=0 / bitrate=13500 / ratetol=1.0 / qcomp=0.60 / qpmin=0 / qpmax=51 / qpstep=4 / cplxblur=20.0 / qblur=0.5 / vbv_maxrate=50000 / vbv_bufsize=62500 / nal_hrd=none / filler=0 / ip_ratio=1.40 / pb_ratio=1.30 / aq=3:0.80
Language                                 : English
Default                                  : Yes
Forced                                   : No

Audio #1
ID                                       : 2
Format                                   : AC-3
Format/Info                              : Audio Coding 3
Commercial name                          : Dolby Digital
Codec ID                                 : A_AC3
Duration                                 : 1 h 39 min
Bit rate mode                            : Constant
Bit rate                                 : 192 kb/s
Channel(s)                               : 2 channels
Channel layout                           : L R
Sampling rate                            : 48.0 kHz
Frame rate                               : 31.250 FPS (1536 SPF)
Compression mode                         : Lossy
Stream size                              : 137 MiB (1%)
Title                                    : Blithe Spirit - Ben Çağırmadım - 2020 | Filmbol.org
Language                                 : Turkish
Service kind                             : Complete Main
Default                                  : Yes
Forced                                   : No

Audio #2
ID                                       : 3
Format                                   : AC-3
Format/Info                              : Audio Coding 3
Commercial name                          : Dolby Digital
Codec ID                                 : A_AC3
Duration                                 : 1 h 39 min
Bit rate mode                            : Constant
Bit rate                                 : 640 kb/s
Channel(s)                               : 6 channels
Channel layout                           : L R C LFE Ls Rs
Sampling rate                            : 48.0 kHz
Frame rate                               : 31.250 FPS (1536 SPF)
Compression mode                         : Lossy
Stream size                              : 457 MiB (4%)
Title                                    : Blithe Spirit - Ben Çağırmadım - 2020 | Filmbol.org
Language                                 : English
Service kind                             : Complete Main
Default                                  : No
Forced                                   : No

Text
ID                                       : 4
Format                                   : UTF-8
Codec ID                                 : S_TEXT/UTF8
Codec ID/Info                            : UTF-8 Plain Text
Duration                                 : 1 h 34 min
Bit rate                                 : 68 b/s
Count of elements                        : 1124
Stream size                              : 47.1 KiB (0%)
Title                                    : Blithe Spirit - Ben Çağırmadım - 2020 | Filmbol.org
Language                                 : Turkish
Default                                  : No
Forced                                   : No

Film Detayları


 Ben Çağırmadım

 Ben Çağırmadım

 Ben Çağırmadım


Film Fragmanı


Film Detayları

Mega linki şuan da gizli. Kullanıma açmak için konuya yorum yapın ve ardından sayfayı yenileyin.

Mega


Bunun için üzgünüz ancak, bu linke sadece premium üyeler erişebilir.

Filmbol Cloud







Hızlı Menü: