Filmbol Forum Film İndir BRRip XviD v Ben Çağırmadım (Blithe Spirit) - 2020 - TR - BRRip XviD | tt10334148

Premium Üyelik Al

Bildirimi Kapat
Mega linklerinin şikayet edilmemesi için global erişime kapatıp sadece yorum yapanlara açıyoruz. Bu linkleri gizleme işlemini mecburen yapıyoruz ve yorum yapmanızın siteye değil size faydası vardır. Teşekkürler yazmayı çok görüp, Random/Spam/Anlamsız mesajlar atarak forumu kirletip Mega linklerini açmaya çalışan kullanıcılara süresiz ban atacağız.


Ben Çağırmadım (Blithe Spirit) - 2020 - TR - BRRip XviD | tt10334148
TheSteeL
Ben Çağırmadım (Blithe Spirit) - 2020 - TR - BRRip XviD | tt10334148
0
5
  • Derecelendirme: 0/5 - 0 oy
  • 1
  • 2
  • 3
  • 4
  • 5
Konuyu Okuyanlar:1 Ziyaretçi
Şuan Online!
Filmin Yayınlanma Tarihi: 2020 
WWW
Şuan Online!
TheSteeL Süper Moderatör
*****
Süper Moderatör



 Ben Çağırmadım



Blithe Spirit, başarıl bir yazardır. Kaleme aldığı şeyler genellikle dünya genelinde okunur ve çoksatar. Fakat Blithe'nin başına kötü bir olay gelir ve karısı hayatını kaybeder. Varlıklı bir adam olan Blithe, bu süreç içerisinde hiç kitap yazamaz. Uzun bir süre sonra bu durumun bu şekilde devam edemeyeceğini anlar ve Ruth isminde bir kadın ile evlenir. Ruth'dan beklentisi eski karısının yerini alabilmesi veya onu unutturabilmesidir. Bu sayede Blithe eski işlerine tekrar dönecek ve iyi kitaplar yazmaya devam edecektir. Fakat beklediği sonucu alamaz. Karısını asla unutamıyor, Ruth'da bu konuda ona yardımcı olamıyordu. Bunun üzerine Blithe evine ruhlar ile ilgilenen Madame Arcat'ı davet eder. Burada ruhlar ile ilgili bir seans alan Bithe, seansın sonunda karısından kurtulmayı beklerken karısı bir anda yanına gelir. Üstelik karısını sadece kendi görmektedir ve diğerlerini bu konuda ikna etmekte güçlük çekmektedir...

Ben Çağırmadım (2020) (Blithe Spirit) | tt10334148 Filmi Imdb'den 4000 kişi tarafından oylandı ve 5,4 puan aldı. Bu film için editör puanı %60 olarak belirlendi. İyi Seyirler!

Teknik Detaylar

Kod :
General
Unique ID                                : 176862740994369792473836063397247015839 (0x850E865F5EFA48AEBD726822D2615B9F)
Complete name                            : /home/TheSteel/Desktop/1/Ben.Cagirmadim.2020.BDRip.XViD.TR.Filmbol.avi
Format                                   : Matroska
Format version                           : Version 4
File size                                : 1.23 GiB
Duration                                 : 1 h 39 min
Overall bit rate                         : 1 770 kb/s
Movie name                               : Blithe Spirit - Ben Çağırmadım - 2020 | Filmbol.org
Encoded date                             : UTC 2021-06-08 11:46:50
Writing application                      : mkvmerge v31.0.0 ('Dolores In A Shoestand') 64-bit
Writing library                          : libebml v1.3.6 + libmatroska v1.4.9
FileExtension_Invalid                    : mkv mk3d mka mks

Video
ID                                       : 1
Format                                   : MPEG-4 Visual
Format profile                           : Advanced [email protected]
Format settings                          : BVOP1 / Custom Matrix
Format settings, BVOP                    : 1
Format settings, QPel                    : No
Format settings, GMC                     : No warppoints
Format settings, Matrix                  : Custom
Codec ID                                 : V_MS/VFW/FOURCC / XVID
Codec ID/Hint                            : XviD
Duration                                 : 1 h 39 min
Bit rate                                 : 1 640 kb/s
Width                                    : 720 pixels
Height                                   : 304 pixels
Display aspect ratio                     : 2.35:1
Frame rate mode                          : Constant
Frame rate                               : 23.976 (23976/1000) FPS
Color space                              : YUV
Chroma subsampling                       : 4:2:0
Bit depth                                : 8 bits
Scan type                                : Progressive
Compression mode                         : Lossy
Bits/(Pixel*Frame)                       : 0.313
Stream size                              : 1.14 GiB (93%)
Title                                    : Blithe Spirit - Ben Çağırmadım - 2020 | Filmbol.org
Writing library                          : XviD 73
Default                                  : Yes
Forced                                   : No

Audio
ID                                       : 2
Format                                   : MPEG Audio
Format version                           : Version 1
Format profile                           : Layer 3
Format settings                          : Joint stereo / MS Stereo
Codec ID                                 : A_MPEG/L3
Codec ID/Hint                            : MP3
Duration                                 : 1 h 39 min
Bit rate mode                            : Constant
Bit rate                                 : 128 kb/s
Channel(s)                               : 2 channels
Sampling rate                            : 48.0 kHz
Frame rate                               : 41.667 FPS (1152 SPF)
Compression mode                         : Lossy
Stream size                              : 91.4 MiB (7%)
Title                                    : Blithe Spirit - Ben Çağırmadım - 2020 | Filmbol.org
Writing library                          : LAME3.99.5
Default                                  : Yes
Forced                                   : No

Film Detayları


 Ben Çağırmadım

 Ben Çağırmadım

 Ben Çağırmadım


Film Fragmanı


Film Detayları


Uptobox ile indir

1Fichier ile indir

1Fichier'den İndiremiyor musun? Tıklayın!


Mega linki şuan da gizli. Kullanıma açmak için konuya yorum yapın ve ardından sayfayı yenileyin.

Mega


Bunun için üzgünüz ancak, bu linke sadece premium üyeler erişebilir.

Filmbol Cloud







Hızlı Menü: