Filmbol Forum Film İndir 1080P v Sonsuz Güzellik (Eternal Beauty) - 2019 - TR+ORG - 1080P | tt5362940
Bildirimi Kapat
Merhaba , site giderlerini bir nebze olsun karşılamak adına link kısaltma servisleri kullanmaya başladık. İndirme linkleri sizi ouo.io adresinde yönlendirecek, 3 saniye geçtikten sonra Get Link butonuna tıklayarak linke ulaşacaksınız. Premium üyeler bu durumdan etkilenmeyecektir.


Premium Üyelik Al

Sonsuz Güzellik (Eternal Beauty) - 2019 - TR+ORG - 1080P | tt5362940
TheSteeL
Sonsuz Güzellik (Eternal Beauty) - 2019 - TR+ORG - 1080P | tt5362940
0
25
  • Derecelendirme: 0/5 - 0 oy
  • 1
  • 2
  • 3
  • 4
  • 5
Konuyu Okuyanlar:1 Ziyaretçi
Şuan Online!
Filmin Yayınlanma Tarihi: 2019 
Şuan Online!
TheSteeL Chief Executive Officer
******
CEO


 Sonsuz Güzellik



Akıl hastası olan Jane büyük bir sıkıntı içerisine girmiştir. Gerçek ile hayal birbirine karışmış, tüm hayatı altüst olmuştur. Onun kurtuluşu haplar ile yada ameliyat ile olabilecek bir şey değildir. Kurtuluşu ancak sevgi ile mümkündür. Neyse ki çözüm ayağına kadar gelmiştir. Mike isminde bir çocukla tanışınca hayatı tamamen değişmeye başlar...

Sonsuz Güzellik (2019) (Eternal Beauty) | tt5362940 Filmi Imdb'den 1500 kişi tarafından oylandı ve 6,3 puan aldı. Bu film için editör puanı %65 olarak belirlendi. İyi Seyirler!

Teknik Detaylar

Kod :
General
Unique ID                                : 29489807808375472285097489249793850911 (0x162F87C7B85B14EC99E2FD756FB5BE1F)
Complete name                            : /home/TheSteel/Desktop/4/Sonsuz.Güzellik.2019.1080p.WEB-DL.x264.TR.ENG.Filmbol.mkv
Format                                   : Matroska
Format version                           : Version 4
File size                                : 1.80 GiB
Duration                                 : 1 h 34 min
Overall bit rate                         : 2 737 kb/s
Movie name                               : Eternal Beauty - Sonsuz Güzellik - 2019 | Filmbol.org
Encoded date                             : UTC 2021-06-02 10:15:03
Writing application                      : mkvmerge v31.0.0 ('Dolores In A Shoestand') 64-bit
Writing library                          : libebml v1.3.6 + libmatroska v1.4.9

Video
ID                                       : 1
Format                                   : AVC
Format/Info                              : Advanced Video Codec
Format profile                           : [email protected]
Format settings                          : CABAC / 2 Ref Frames
Format settings, CABAC                   : Yes
Format settings, Reference frames        : 2 frames
Codec ID                                 : V_MPEG4/ISO/AVC
Duration                                 : 1 h 34 min
Bit rate                                 : 2 351 kb/s
Width                                    : 1 920 pixels
Height                                   : 1 040 pixels
Display aspect ratio                     : 1.85:1
Original display aspect ratio            : 1.85:1
Frame rate mode                          : Constant
Frame rate                               : 24.000 FPS
Color space                              : YUV
Chroma subsampling                       : 4:2:0
Bit depth                                : 8 bits
Scan type                                : Progressive
Bits/(Pixel*Frame)                       : 0.049
Stream size                              : 1.55 GiB (86%)
Title                                    : Eternal Beauty - Sonsuz Güzellik - 2019 | Filmbol.org
Default                                  : Yes
Forced                                   : No

Audio #1
ID                                       : 2
Format                                   : AC-3
Format/Info                              : Audio Coding 3
Commercial name                          : Dolby Digital
Codec ID                                 : A_AC3
Duration                                 : 1 h 34 min
Bit rate mode                            : Constant
Bit rate                                 : 192 kb/s
Channel(s)                               : 2 channels
Channel layout                           : L R
Sampling rate                            : 48.0 kHz
Frame rate                               : 31.250 FPS (1536 SPF)
Compression mode                         : Lossy
Stream size                              : 130 MiB (7%)
Title                                    : Eternal Beauty - Sonsuz Güzellik - 2019 | Filmbol.org
Language                                 : Turkish
Service kind                             : Complete Main
Default                                  : Yes
Forced                                   : No

Audio #2
ID                                       : 3
Format                                   : AC-3
Format/Info                              : Audio Coding 3
Commercial name                          : Dolby Digital
Codec ID                                 : A_AC3
Duration                                 : 1 h 34 min
Bit rate mode                            : Constant
Bit rate                                 : 192 kb/s
Channel(s)                               : 2 channels
Channel layout                           : L R
Sampling rate                            : 48.0 kHz
Frame rate                               : 31.250 FPS (1536 SPF)
Compression mode                         : Lossy
Stream size                              : 129 MiB (7%)
Title                                    : Eternal Beauty - Sonsuz Güzellik - 2019 | Filmbol.org
Language                                 : English
Service kind                             : Complete Main
Default                                  : No
Forced                                   : No

Text
ID                                       : 4
Format                                   : UTF-8
Codec ID                                 : S_TEXT/UTF8
Codec ID/Info                            : UTF-8 Plain Text
Duration                                 : 1 h 33 min
Bit rate                                 : 40 b/s
Count of elements                        : 948
Stream size                              : 27.6 KiB (0%)
Title                                    : Eternal Beauty - Sonsuz Güzellik - 2019 | Filmbol.org
Language                                 : Turkish
Default                                  : No
Forced                                   : No

Film Detayları


 Sonsuz Güzellik

 Sonsuz Güzellik

 Sonsuz Güzellik


Film Fragmanı


Film Detayları



Zip Şifresi: filmbol.org Aşağıdaki butona tıklayarak kopyalabilirsiniz.

Mega linkiniz:


Uptobox ile indir

1Fichier ile indir

1Fichier'den İndiremiyor musun? Tıklayın!








Bunun için üzgünüz ancak, bu linke sadece premium üyeler erişebilir.

Filmbol Cloud





WWW


Hızlı Menü: