Filmbol Forum Film İndir BRRip XviD v Sonsuz Güzellik (Eternal Beauty) - 2019 - TR - BRRip XviD | tt5362940
Bildirimi Kapat
Merhaba , site giderlerini bir nebze olsun karşılamak adına link kısaltma servisleri kullanmaya başladık. İndirme linkleri sizi ouo.io adresinde yönlendirecek, 3 saniye geçtikten sonra Get Link butonuna tıklayarak linke ulaşacaksınız. Premium üyeler bu durumdan etkilenmeyecektir.


Premium Üyelik Al

Sonsuz Güzellik (Eternal Beauty) - 2019 - TR - BRRip XviD | tt5362940
TheSteeL
Sonsuz Güzellik (Eternal Beauty) - 2019 - TR - BRRip XviD | tt5362940
0
23
  • Derecelendirme: 0/5 - 0 oy
  • 1
  • 2
  • 3
  • 4
  • 5
Konuyu Okuyanlar:1 Ziyaretçi
Şuan Online!
Filmin Yayınlanma Tarihi: 2019 
Şuan Online!
TheSteeL Chief Executive Officer
******
CEO


 Sonsuz Güzellik



Akıl hastası olan Jane büyük bir sıkıntı içerisine girmiştir. Gerçek ile hayal birbirine karışmış, tüm hayatı altüst olmuştur. Onun kurtuluşu haplar ile yada ameliyat ile olabilecek bir şey değildir. Kurtuluşu ancak sevgi ile mümkündür. Neyse ki çözüm ayağına kadar gelmiştir. Mike isminde bir çocukla tanışınca hayatı tamamen değişmeye başlar...

Sonsuz Güzellik (2019) (Eternal Beauty) | tt5362940 Filmi Imdb'den 1500 kişi tarafından oylandı ve 6,3 puan aldı. Bu film için editör puanı %65 olarak belirlendi. İyi Seyirler!

Teknik Detaylar

Kod :
General
Unique ID                                : 64450524852136136570062787085316904504 (0x307CB836077A1A54F0429DA71E73D638)
Complete name                            : /home/TheSteel/Desktop/4/Sonsuz.Güzellik.2019.HDRip.XviD.TR.Filmbol.avi
Format                                   : Matroska
Format version                           : Version 4
File size                                : 910 MiB
Duration                                 : 1 h 34 min
Overall bit rate                         : 1 350 kb/s
Movie name                               : Eternal Beauty - Sonsuz Güzellik - 2019 | Filmbol.org
Encoded date                             : UTC 2021-06-02 10:15:59
Writing application                      : mkvmerge v31.0.0 ('Dolores In A Shoestand') 64-bit
Writing library                          : libebml v1.3.6 + libmatroska v1.4.9
FileExtension_Invalid                    : mkv mk3d mka mks

Video
ID                                       : 1
Format                                   : MPEG-4 Visual
Format profile                           : Advanced [email protected]
Format settings                          : BVOP2
Format settings, BVOP                    : 2
Format settings, QPel                    : No
Format settings, GMC                     : No warppoints
Format settings, Matrix                  : Default (MPEG)
Muxing mode                              : Packed bitstream
Codec ID                                 : V_MS/VFW/FOURCC / XVID
Codec ID/Hint                            : XviD
Duration                                 : 1 h 34 min
Bit rate                                 : 1 220 kb/s
Width                                    : 720 pixels
Height                                   : 388 pixels
Display aspect ratio                     : 1.85:1
Frame rate mode                          : Constant
Frame rate                               : 24.000 FPS
Color space                              : YUV
Chroma subsampling                       : 4:2:0
Bit depth                                : 8 bits
Scan type                                : Progressive
Compression mode                         : Lossy
Bits/(Pixel*Frame)                       : 0.182
Stream size                              : 822 MiB (90%)
Title                                    : Eternal Beauty - Sonsuz Güzellik - 2019 | Filmbol.org
Writing library                          : XviD 64
Default                                  : Yes
Forced                                   : No

Audio
ID                                       : 2
Format                                   : MPEG Audio
Format version                           : Version 1
Format profile                           : Layer 3
Format settings                          : Joint stereo / MS Stereo
Codec ID                                 : A_MPEG/L3
Codec ID/Hint                            : MP3
Duration                                 : 1 h 34 min
Bit rate mode                            : Constant
Bit rate                                 : 128 kb/s
Channel(s)                               : 2 channels
Sampling rate                            : 48.0 kHz
Frame rate                               : 41.667 FPS (1152 SPF)
Compression mode                         : Lossy
Stream size                              : 86.3 MiB (9%)
Title                                    : Eternal Beauty - Sonsuz Güzellik - 2019 | Filmbol.org
Default                                  : Yes
Forced                                   : No

Film Detayları


 Sonsuz Güzellik

 Sonsuz Güzellik

 Sonsuz Güzellik


Film Fragmanı


Film Detayları



Zip Şifresi: filmbol.org Aşağıdaki butona tıklayarak kopyalabilirsiniz.



Uptobox ile indir

1Fichier ile indir

1Fichier'den İndiremiyor musun? Tıklayın!





Filmbol Cloud

Bunun için üzgünüz ancak, bu linke sadece premium üyeler erişebilir.




WWW


Hızlı Menü: