Filmbol Forum Film İndir 1080P v Yakın Tehlike (Danger Close: The Battle of Long Tan) - 2019 - TR+ORG - 1080P | tt0441881

Premium Üyelik Al

Bildirimi Kapat
Mega linklerinin şikayet edilmemesi için global erişime kapatıp sadece yorum yapanlara açıyoruz. Bu linkleri gizleme işlemini mecburen yapıyoruz ve yorum yapmanızın siteye değil size faydası vardır. Teşekkürler yazmayı çok görüp, Random/Spam/Anlamsız mesajlar atarak forumu kirletip Mega linklerini açmaya çalışan kullanıcılara süresiz ban atacağız.


Yakın Tehlike (Danger Close: The Battle of Long Tan) - 2019 - TR+ORG - 1080P | tt0441881
TheSteeL
Yakın Tehlike (Danger Close: The Battle of Long Tan) - 2019 - TR+ORG - 1080P | tt0441881
0
10
  • Derecelendirme: 0/5 - 0 oy
  • 1
  • 2
  • 3
  • 4
  • 5
Konuyu Okuyanlar:1 Ziyaretçi
Şuan Online!
Filmin Yayınlanma Tarihi: 2019 
WWW
Şuan Online!
TheSteeL Süper Moderatör
*****
Süper Moderatör



 Yakın Tehlike



Sizden 25 kat daha büyük bir ordu karşısında 108 kişi kaldığınızı hayal edin. Ne yapardınız? Aslına bakılırsa hem matematiksel olarak hem de fiziksel olarak bu savaştan galip ayrılmanız pek mümkün değildir. Ancak eğer arkadaşlarınızı iyi tanıyor ve ekip halinde hareket edebiliyorsanız, sizin için iyi bir savaş olabilir. Yakın Tehlike ise bu senaryo üzerinden gerçek bir hikâye olduğu söylenen 108 avusturyalı askerin Vietnamlı 2500 kişilik bir orduya kafa tuttuğu o ana odaklanıyor...

Yakın Tehlike (2019) (Danger Close: The Battle of Long Tan) | tt0441881 Filmi Imdb'den 10500 kişi tarafından oylandı ve 6,8 puan aldı. Bu film için editör puanı %74 olarak belirlendi. İyi Seyirler!

Teknik Detaylar

Kod :
General
Unique ID                                : 88476272735011205387612296795134829402 (0x428FE9099AEB4F6224F763CA406B235A)
Complete name                            : /home/TheSteel/Desktop/9/Yakın.Tehlike.2019.1080p.Bluray.x264.TR.ENG.Filmbol.mkv
Format                                   : Matroska
Format version                           : Version 4
File size                                : 2.18 GiB
Duration                                 : 1 h 58 min
Overall bit rate                         : 2 642 kb/s
Movie name                               : Danger Close - Yakın Tehlike - 2019 | Filmbol.org
Encoded date                             : UTC 2021-06-10 12:08:26
Writing application                      : mkvmerge v31.0.0 ('Dolores In A Shoestand') 64-bit
Writing library                          : libebml v1.3.6 + libmatroska v1.4.9

Video
ID                                       : 1
Format                                   : AVC
Format/Info                              : Advanced Video Codec
Format profile                           : [email protected]
Format settings                          : CABAC / 2 Ref Frames
Format settings, CABAC                   : Yes
Format settings, Reference frames        : 2 frames
Format settings, GOP                     : M=1, N=25
Codec ID                                 : V_MPEG4/ISO/AVC
Duration                                 : 1 h 58 min
Bit rate                                 : 2 256 kb/s
Width                                    : 1 920 pixels
Height                                   : 800 pixels
Display aspect ratio                     : 2.40:1
Frame rate mode                          : Constant
Frame rate                               : 23.976 (24000/1001) FPS
Color space                              : YUV
Chroma subsampling                       : 4:2:0
Bit depth                                : 8 bits
Scan type                                : Progressive
Bits/(Pixel*Frame)                       : 0.061
Stream size                              : 1.86 GiB (85%)
Title                                    : Danger Close - Yakın Tehlike - 2019 | Filmbol.org
Language                                 : English
Default                                  : Yes
Forced                                   : No

Audio #1
ID                                       : 2
Format                                   : AC-3
Format/Info                              : Audio Coding 3
Commercial name                          : Dolby Digital
Codec ID                                 : A_AC3
Duration                                 : 1 h 58 min
Bit rate mode                            : Constant
Bit rate                                 : 192 kb/s
Channel(s)                               : 2 channels
Channel layout                           : L R
Sampling rate                            : 48.0 kHz
Frame rate                               : 31.250 FPS (1536 SPF)
Compression mode                         : Lossy
Stream size                              : 162 MiB (7%)
Title                                    : Danger Close - Yakın Tehlike - 2019 | Filmbol.org
Language                                 : Turkish
Service kind                             : Complete Main
Default                                  : Yes
Forced                                   : No

Audio #2
ID                                       : 3
Format                                   : AC-3
Format/Info                              : Audio Coding 3
Commercial name                          : Dolby Digital
Codec ID                                 : A_AC3
Duration                                 : 1 h 58 min
Bit rate mode                            : Constant
Bit rate                                 : 192 kb/s
Channel(s)                               : 2 channels
Channel layout                           : L R
Sampling rate                            : 48.0 kHz
Frame rate                               : 31.250 FPS (1536 SPF)
Compression mode                         : Lossy
Stream size                              : 162 MiB (7%)
Title                                    : Danger Close - Yakın Tehlike - 2019 | Filmbol.org
Language                                 : English
Service kind                             : Complete Main
Default                                  : No
Forced                                   : No

Text
ID                                       : 4
Format                                   : UTF-8
Codec ID                                 : S_TEXT/UTF8
Codec ID/Info                            : UTF-8 Plain Text
Duration                                 : 1 h 43 min
Bit rate                                 : 42 b/s
Count of elements                        : 1115
Stream size                              : 32.5 KiB (0%)
Title                                    : Danger Close - Yakın Tehlike - 2019 | Filmbol.org
Language                                 : Turkish
Default                                  : No
Forced                                   : No

Film Detayları


 Yakın Tehlike

 Yakın Tehlike

 Yakın Tehlike


Film Fragmanı


Film Detayları

Uptobox ile indir

1Fichier ile indir

1Fichier'den İndiremiyor musun? Tıklayın!


Mega linki şuan da gizli. Kullanıma açmak için konuya yorum yapın ve ardından sayfayı yenileyin.

Mega


Bunun için üzgünüz ancak, bu linke sadece premium üyeler erişebilir.

Filmbol Cloud







Hızlı Menü: