Filmbol Forum Film İndir BRRip XviD v Yakın Tehlike (Danger Close: The Battle of Long Tan) - 2019 - TR - BRRip XviD | tt0441881
Bildirimi Kapat
Merhaba , site giderlerini bir nebze olsun karşılamak adına link kısaltma servisleri kullanmaya başladık. İndirme linkleri sizi ouo.io adresinde yönlendirecek, 3 saniye geçtikten sonra Get Link butonuna tıklayarak linke ulaşacaksınız. Premium üyeler bu durumdan etkilenmeyecektir.


Premium Üyelik Al

Yakın Tehlike (Danger Close: The Battle of Long Tan) - 2019 - TR - BRRip XviD | tt0441881
TheSteeL
Yakın Tehlike (Danger Close: The Battle of Long Tan) - 2019 - TR - BRRip XviD | tt0441881
0
33
  • Derecelendirme: 0/5 - 0 oy
  • 1
  • 2
  • 3
  • 4
  • 5
Konuyu Okuyanlar:1 Ziyaretçi
Şuan Online!
Filmin Yayınlanma Tarihi: 2019 
Şuan Online!
TheSteeL Chief Executive Officer
******
CEO


 Yakın Tehlike



Sizden 25 kat daha büyük bir ordu karşısında 108 kişi kaldığınızı hayal edin. Ne yapardınız? Aslına bakılırsa hem matematiksel olarak hem de fiziksel olarak bu savaştan galip ayrılmanız pek mümkün değildir. Ancak eğer arkadaşlarınızı iyi tanıyor ve ekip halinde hareket edebiliyorsanız, sizin için iyi bir savaş olabilir. Yakın Tehlike ise bu senaryo üzerinden gerçek bir hikâye olduğu söylenen 108 avusturyalı askerin Vietnamlı 2500 kişilik bir orduya kafa tuttuğu o ana odaklanıyor...

Yakın Tehlike (2019) (Danger Close: The Battle of Long Tan) | tt0441881 Filmi Imdb'den 10500 kişi tarafından oylandı ve 6,8 puan aldı. Bu film için editör puanı %74 olarak belirlendi. İyi Seyirler!

Teknik Detaylar

Kod :
General
Unique ID                                : 303163796265909433429408572589208538208 (0xE413392C0A803FCDDAB107D5D0F08C60)
Complete name                            : /home/TheSteel/Desktop/5/Yakın.Tehlike.2019.BDRip.XViD.TR.Filmbol.avi
Format                                   : Matroska
Format version                           : Version 4
File size                                : 1.19 GiB
Duration                                 : 1 h 58 min
Overall bit rate                         : 1 441 kb/s
Movie name                               : Danger Close - Yakın Tehlike - 2019 | Filmbol.org
Encoded date                             : UTC 2021-06-02 10:58:59
Writing application                      : mkvmerge v31.0.0 ('Dolores In A Shoestand') 64-bit
Writing library                          : libebml v1.3.6 + libmatroska v1.4.9
FileExtension_Invalid                    : mkv mk3d mka mks

Video
ID                                       : 1
Format                                   : MPEG-4 Visual
Format profile                           : Advanced [email protected]
Format settings                          : BVOP1 / Custom Matrix
Format settings, BVOP                    : 1
Format settings, QPel                    : No
Format settings, GMC                     : No warppoints
Format settings, Matrix                  : Custom
Codec ID                                 : V_MS/VFW/FOURCC / XVID
Codec ID/Hint                            : XviD
Duration                                 : 1 h 58 min
Bit rate                                 : 1 311 kb/s
Width                                    : 720 pixels
Height                                   : 304 pixels
Display aspect ratio                     : 2.35:1
Frame rate mode                          : Constant
Frame rate                               : 23.976 (23976/1000) FPS
Original frame rate                      : 23.976 (24000/1001) FPS
Color space                              : YUV
Chroma subsampling                       : 4:2:0
Bit depth                                : 8 bits
Scan type                                : Progressive
Compression mode                         : Lossy
Bits/(Pixel*Frame)                       : 0.250
Stream size                              : 1.08 GiB (91%)
Title                                    : Danger Close - Yakın Tehlike - 2019 | Filmbol.org
Writing library                          : XviD 73
Default                                  : Yes
Forced                                   : No

Audio
ID                                       : 2
Format                                   : MPEG Audio
Format version                           : Version 1
Format profile                           : Layer 3
Format settings                          : Joint stereo
Codec ID                                 : A_MPEG/L3
Codec ID/Hint                            : MP3
Duration                                 : 1 h 58 min
Bit rate mode                            : Constant
Bit rate                                 : 128 kb/s
Channel(s)                               : 2 channels
Sampling rate                            : 48.0 kHz
Frame rate                               : 41.667 FPS (1152 SPF)
Compression mode                         : Lossy
Stream size                              : 108 MiB (9%)
Title                                    : Danger Close - Yakın Tehlike - 2019 | Filmbol.org
Writing library                          : LAMEUU
Default                                  : Yes
Forced                                   : No

Film Detayları


 Yakın Tehlike

 Yakın Tehlike

 Yakın Tehlike


Film Fragmanı


Film Detayları



Zip Şifresi: filmbol.org Aşağıdaki butona tıklayarak kopyalabilirsiniz.



Uptobox ile indir

1Fichier ile indir

1Fichier'den İndiremiyor musun? Tıklayın!





Filmbol Cloud

Bunun için üzgünüz ancak, bu linke sadece premium üyeler erişebilir.




WWW


Hızlı Menü: