Filmbol Forum Film İndir FHD - FULL HD v Our House (Bizim Ev) - 2018 - TR+ORG - FHD - x264 | tt2018069

Premium Üyelik Al

Bildirimi Kapat
Mega linklerinin şikayet edilmemesi için global erişime kapatıp sadece yorum yapanlara açıyoruz. Bu linkleri gizleme işlemini mecburen yapıyoruz ve yorum yapmanızın siteye değil size faydası vardır. Teşekkürler yazmayı çok görüp, Random/Spam/Anlamsız mesajlar atarak forumu kirletip Mega linklerini açmaya çalışan kullanıcılara süresiz ban atacağız.


Our House (Bizim Ev) - 2018 - TR+ORG - FHD - x264 | tt2018069
BroserBros
Our House (Bizim Ev) - 2018 - TR+ORG - FHD - x264 | tt2018069
0
2
  • Derecelendirme: 0/5 - 0 oy
  • 1
  • 2
  • 3
  • 4
  • 5
Konuyu Okuyanlar:1 Ziyaretçi
Şuan Online!
Filmin Yayınlanma Tarihi: 2018 
WWW
Şuan Online!
BroserBros Kurucu Admin
*******
Admin



 Our House



Our House, yaptığı icat sayesinde evlerine musallat olan ruhlardan kurtulmaya çalışan Ethan ve kardeşlerinin hikayesini anlatıyor. Ölenleri geri getirebilecek bir makine harika bir fikir gibi gözüküyor; ta ki yanlış ruhlar ortaya çıkana kadar… Genç bir deha olan Ethan ebeveynlerini bir trafik kazasında kaybetmiştir. Ethan, yaşadığı kaybın ardından kardeşlerine bakabilmek için eğitimini ve kız arkadaşını ardında bırakır. Günlerini iyi çocuğu büyütme sorumluluğu ile geçiren Ethan bir yandan da garajda dünyayı değiştirebileceğini düşündüğü icadı üzerinde çalışır. Eğer her şey yolunda giderse Ethan icadı sayesinde ailesi ile tekrar bir araya gelebilecektir. Son düzenlemeleri yaptıktan sonra kardeşleri ile birlikte ebeveynleri ile iletişim kurmaya çalışırlar. Tam da bu sırada beklenmedik korkunç bir durumla karşı karşıya kalırlar. Ethan’ın icat ettiği makine yanlış ruhların ortaya çıkıp evlerine musallat olmasına neden olur.

Our House (2018) (Bizim Ev) | tt2018069 Filmi Imdb'den 7,500 kişi tarafından oylandı ve 5,3 puan aldı. Bu film için editör puanı %57 olarak belirlendi. İyi Seyirler!

Teknik Detaylar

Kod :
General
Unique ID                                : 19861401300425146094690403882232533799 (0xEF12AB024172C3BCFDA281D1EFD5327)
Complete name                            : /home/BroserBros/Desktop/7/Our.House.2018.FHD.BluRay.x264.TR.ENG.Filmbol.mkv
Format                                   : Matroska
Format version                           : Version 4
File size                                : 5.05 GiB
Duration                                 : 1 h 30 min
Overall bit rate                         : 7 986 kb/s
Movie name                               : Our House - Bizim Ev - 2018 | Filmbol.org
Encoded date                             : UTC 2021-06-09 15:17:42
Writing application                      : mkvmerge v53.0.0 ('Fool's Gold') 64-bit
Writing library                          : libebml v1.4.1 + libmatroska v1.6.2

Video
ID                                       : 1
Format                                   : AVC
Format/Info                              : Advanced Video Codec
Format profile                           : [email protected]
Format settings                          : CABAC / 4 Ref Frames
Format settings, CABAC                   : Yes
Format settings, Reference frames        : 4 frames
Codec ID                                 : V_MPEG4/ISO/AVC
Duration                                 : 1 h 30 min
Bit rate                                 : 6 987 kb/s
Width                                    : 1 920 pixels
Height                                   : 1 080 pixels
Display aspect ratio                     : 16:9
Frame rate mode                          : Constant
Frame rate                               : 23.976 (24000/1001) FPS
Color space                              : YUV
Chroma subsampling                       : 4:2:0
Bit depth                                : 8 bits
Scan type                                : Progressive
Bits/(Pixel*Frame)                       : 0.141
Stream size                              : 4.40 GiB (87%)
Title                                    : FHD - Filmbol.org
Default                                  : Yes
Forced                                   : No
Color range                              : Limited
Color primaries                          : BT.709
Transfer characteristics                 : BT.709
Matrix coefficients                      : BT.709

Audio #1
ID                                       : 2
Format                                   : AC-3
Format/Info                              : Audio Coding 3
Commercial name                          : Dolby Digital
Codec ID                                 : A_AC3
Duration                                 : 1 h 30 min
Bit rate mode                            : Constant
Bit rate                                 : 384 kb/s
Channel(s)                               : 6 channels
Channel layout                           : L R C LFE Ls Rs
Sampling rate                            : 48.0 kHz
Frame rate                               : 31.250 FPS (1536 SPF)
Compression mode                         : Lossy
Delay relative to video                  : 11 s 200 ms
Stream size                              : 248 MiB (5%)
Title                                    : Türkçe - Filmbol.org
Language                                 : Turkish
Service kind                             : Complete Main
Default                                  : Yes
Forced                                   : Yes

Audio #2
ID                                       : 3
Format                                   : E-AC-3
Format/Info                              : Enhanced AC-3
Commercial name                          : Dolby Digital Plus
Codec ID                                 : A_EAC3
Duration                                 : 1 h 30 min
Bit rate mode                            : Constant
Bit rate                                 : 640 kb/s
Channel(s)                               : 6 channels
Channel layout                           : L R C LFE Ls Rs
Sampling rate                            : 48.0 kHz
Frame rate                               : 31.250 FPS (1536 SPF)
Compression mode                         : Lossy
Stream size                              : 413 MiB (8%)
Title                                    : Orijinal Dil - Filmbol.org
Language                                 : English
Service kind                             : Complete Main
Default                                  : No
Forced                                   : No

Text #1
ID                                       : 4
Format                                   : UTF-8
Codec ID                                 : S_TEXT/UTF8
Codec ID/Info                            : UTF-8 Plain Text
Duration                                 : 1 h 23 min
Bit rate                                 : 39 b/s
Count of elements                        : 899
Stream size                              : 24.1 KiB (0%)
Title                                    : Türkçe - Filmbol.org
Language                                 : Turkish
Default                                  : No
Forced                                   : No

Text #2
ID                                       : 5
Format                                   : UTF-8
Codec ID                                 : S_TEXT/UTF8
Codec ID/Info                            : UTF-8 Plain Text
Duration                                 : 1 h 29 min
Bit rate                                 : 43 b/s
Count of elements                        : 1149
Stream size                              : 28.4 KiB (0%)
Title                                    : Orijinal Dil - Filmbol.org
Language                                 : English
Default                                  : No
Forced                                   : No

Film Detayları


 Our House

 Our House

 Our House


Film Fragmanı


Film Detayları

Mega linki şuan da gizli. Kullanıma açmak için konuya yorum yapın ve ardından sayfayı yenileyin.

Mega


Bunun için üzgünüz ancak, bu linke sadece premium üyeler erişebilir.

Filmbol Cloud







Hızlı Menü: