⤤ Premium'a Yükselt
Filmbol Forum Film İndir 1080P v Our House (Bizim Ev) - 2018 - TR+ORG - 1080P | tt2018069

Filmbol TV kullanıma açıldı. Bu adresten giriş yapabilirsin: Giriş





Our House (Bizim Ev) - 2018 - TR+ORG - 1080P | tt2018069
BroserBros
Our House (Bizim Ev) - 2018 - TR+ORG - 1080P | tt2018069
4
586
  • Derecelendirme: 0/5 - 0 oy
  • 1
  • 2
  • 3
  • 4
  • 5
Konuyu Okuyanlar:1 Ziyaretçi
Şuan Online!
Filmin Yayınlanma Tarihi: 2018 
WWW
Rapor Et!
Şuan Online!
BroserBros Kurucu Admin
*******
Admin



 Our House



Our House, yaptığı icat sayesinde evlerine musallat olan ruhlardan kurtulmaya çalışan Ethan ve kardeşlerinin hikayesini anlatıyor. Ölenleri geri getirebilecek bir makine harika bir fikir gibi gözüküyor; ta ki yanlış ruhlar ortaya çıkana kadar… Genç bir deha olan Ethan ebeveynlerini bir trafik kazasında kaybetmiştir. Ethan, yaşadığı kaybın ardından kardeşlerine bakabilmek için eğitimini ve kız arkadaşını ardında bırakır. Günlerini iyi çocuğu büyütme sorumluluğu ile geçiren Ethan bir yandan da garajda dünyayı değiştirebileceğini düşündüğü icadı üzerinde çalışır. Eğer her şey yolunda giderse Ethan icadı sayesinde ailesi ile tekrar bir araya gelebilecektir. Son düzenlemeleri yaptıktan sonra kardeşleri ile birlikte ebeveynleri ile iletişim kurmaya çalışırlar. Tam da bu sırada beklenmedik korkunç bir durumla karşı karşıya kalırlar. Ethan’ın icat ettiği makine yanlış ruhların ortaya çıkıp evlerine musallat olmasına neden olur.

Our House (2018) (Bizim Ev) | tt2018069 Filmi Imdb'den 7,500 kişi tarafından oylandı ve 5,3 puan aldı. Bu film için editör puanı %57 olarak belirlendi. İyi Seyirler!

Teknik Detaylar

Kod :
General
Unique ID                                : 190074000916587434208165425718647752528 (0x8EFEEBC6C0AB899D8C07DECE44368750)
Complete name                            : /home/BroserBros/Desktop/7/Our.House.2018.1080p.BluRay.x264.TR.ENG.Filmbol.mkv
Format                                   : Matroska
Format version                           : Version 4
File size                                : 1.90 GiB
Duration                                 : 1 h 30 min
Overall bit rate                         : 3 014 kb/s
Movie name                               : Our House - Bizim Ev - 2018 | Filmbol.org
Encoded date                             : UTC 2021-06-09 15:05:30
Writing application                      : mkvmerge v53.0.0 ('Fool's Gold') 64-bit
Writing library                          : libebml v1.4.1 + libmatroska v1.6.2

Video
ID                                       : 1
Format                                   : AVC
Format/Info                              : Advanced Video Codec
Format profile                           : [email protected]
Format settings                          : CABAC / 4 Ref Frames
Format settings, CABAC                   : Yes
Format settings, Reference frames        : 4 frames
Codec ID                                 : V_MPEG4/ISO/AVC
Duration                                 : 1 h 30 min
Bit rate                                 : 2 500 kb/s
Width                                    : 1 920 pixels
Height                                   : 1 080 pixels
Display aspect ratio                     : 16:9
Frame rate mode                          : Constant
Frame rate                               : 23.976 (23976/1000) FPS
Color space                              : YUV
Chroma subsampling                       : 4:2:0
Bit depth                                : 8 bits
Scan type                                : Progressive
Bits/(Pixel*Frame)                       : 0.050
Stream size                              : 1.57 GiB (83%)
Title                                    : 1080P - Filmbol.org
Writing library                          : x264 core 152 r2851M ba24899
Encoding settings                        : cabac=1 / ref=4 / deblock=1:-1:-1 / analyse=0x3:0x113 / me=umh / subme=9 / psy=1 / psy_rd=1.00:0.15 / mixed_ref=1 / me_range=24 / chroma_me=1 / trellis=2 / 8x8dct=1 / cqm=0 / deadzone=21,11 / fast_pskip=1 / chroma_qp_offset=-3 / threads=32 / lookahead_threads=4 / sliced_threads=0 / nr=0 / decimate=1 / interlaced=0 / bluray_compat=0 / constrained_intra=0 / bframes=3 / b_pyramid=2 / b_adapt=2 / b_bias=0 / direct=3 / weightb=1 / open_gop=0 / weightp=2 / keyint=250 / keyint_min=25 / scenecut=40 / intra_refresh=0 / rc_lookahead=50 / rc=2pass / mbtree=1 / bitrate=2500 / ratetol=1.0 / qcomp=0.60 / qpmin=0 / qpmax=69 / qpstep=4 / cplxblur=20.0 / qblur=0.5 / vbv_maxrate=31250 / vbv_bufsize=31250 / nal_hrd=none / filler=0 / ip_ratio=1.40 / aq=3:1.00
Default                                  : Yes
Forced                                   : No

Audio #1
ID                                       : 2
Format                                   : AC-3
Format/Info                              : Audio Coding 3
Commercial name                          : Dolby Digital
Codec ID                                 : A_AC3
Duration                                 : 1 h 30 min
Bit rate mode                            : Constant
Bit rate                                 : 384 kb/s
Channel(s)                               : 6 channels
Channel layout                           : L R C LFE Ls Rs
Sampling rate                            : 48.0 kHz
Frame rate                               : 31.250 FPS (1536 SPF)
Compression mode                         : Lossy
Delay relative to video                  : 12 s 157 ms
Stream size                              : 248 MiB (13%)
Title                                    : Türkçe - Filmbol.org
Language                                 : Turkish
Service kind                             : Complete Main
Default                                  : Yes
Forced                                   : Yes

Audio #2
ID                                       : 3
Format                                   : AAC LC
Format/Info                              : Advanced Audio Codec Low Complexity
Codec ID                                 : A_AAC-2
Duration                                 : 1 h 30 min
Bit rate                                 : 137 kb/s
Channel(s)                               : 2 channels
Channel layout                           : L R
Sampling rate                            : 48.0 kHz
Frame rate                               : 46.875 FPS (1024 SPF)
Compression mode                         : Lossy
Delay relative to video                  : -43 ms
Stream size                              : 88.6 MiB (5%)
Title                                    : Orijinal Dil - Filmbol.org
Language                                 : English
Default                                  : No
Forced                                   : No

Text
ID                                       : 4
Format                                   : UTF-8
Codec ID                                 : S_TEXT/UTF8
Codec ID/Info                            : UTF-8 Plain Text
Duration                                 : 1 h 23 min
Bit rate                                 : 39 b/s
Count of elements                        : 899
Stream size                              : 24.1 KiB (0%)
Title                                    : Türkçe - Filmbol.org
Language                                 : Turkish
Default                                  : No
Forced                                   : No

Film Detayları


 Our House

 Our House

 Our House


Film Fragmanı


Film İndir


Rar Şifresi: filmbol.org


Uptobox ile indir

1Fichier ile indir

1Fichier'den İndiremiyor musun? Tıklayın!












Şuan Online!
Rapor Et!
Şuan Online!
BroserBros Kurucu Admin
*******
Admin
10.06.2021 Yönetici Notu:

Kırık linkler kontrol edildi, kaldırıldı ve yenilendi. Tüm linkler tamamen çalışır durumda.
Şuan Offine!
Rapor Et!
Şuan Offine!
wintalker46 Uzman Üye
**
Uzman Üye
  • Konular0
  • Mesajlar314
  • Rep puanı 0
Teşekkürler.
Şuan Offine!
Rapor Et!
Şuan Offine!
trmntrmn Süper Üye
***
Super Üye
  • Konular0
  • Mesajlar802
  • Rep puanı 11
Teşekkürler.
Şuan Offine!
Rapor Et!
Şuan Offine!
bilibiliadmin Üye
*
Üye
  • Konular0
  • Mesajlar7
  • Rep puanı 0
Teşekkürler.


Hızlı Menü: