Filmbol Forum Film İndir UHD - ULTRA HD - 4K v Kızgın Kuşlar Filmi 2 (Angry Birds Filmi 2) - 2019 - TR+ORG - UHD (4K) - 10Bit-x265 | tt6095472

Premium Üyelik Al

Bildirimi Kapat
Mega linklerinin şikayet edilmemesi için global erişime kapatıp sadece yorum yapanlara açıyoruz. Bu linkleri gizleme işlemini mecburen yapıyoruz ve yorum yapmanızın siteye değil size faydası vardır. Teşekkürler yazmayı çok görüp, Random/Spam/Anlamsız mesajlar atarak forumu kirletip Mega linklerini açmaya çalışan kullanıcılara süresiz ban atacağız.


Kızgın Kuşlar Filmi 2 (Angry Birds Filmi 2) - 2019 - TR+ORG - UHD (4K) - 10Bit-x265 | tt6095472
BroserBros
Kızgın Kuşlar Filmi 2 (Angry Birds Filmi 2) - 2019 - TR+ORG - UHD (4K) - 10Bit-x265 | tt6095472
0
4
  • Derecelendirme: 0/5 - 0 oy
  • 1
  • 2
  • 3
  • 4
  • 5
Konuyu Okuyanlar:1 Ziyaretçi
Şuan Online!
Filmin Yayınlanma Tarihi: 2019 
WWW
Şuan Online!
BroserBros Kurucu Admin
*******
Admin



 Kızgın Kuşlar Filmi 2



Sevilen bilgisayar oyunundan beyazperdeye uyarlanan Angry Birds filminin devam halkası olan yapımda, uçamayan kuşlar ve yeşil domuzların yaşadığı maceralar konu ediliyor. Kuş ve Domuz adaları büyük bir tehlike ile karşı karşıyadır. Yaşadıkları yeri korumak için harekete geçen Red, Chuck, Bomba ve Yüce Kartal bir süper takım oluşturmaya karar verir. Chuck’ın kız kardeşi Silver’ı da takıma alan ekip, istikrarsız bir ateşkes başlatmak ve yurtlarını kurtarmak için domuz Leonard, asistanı Courtney ve teknik uzman domuz Garry ile de iş birliği yapar. Güçlerini birleştiren ekip, tehlike altında bulunan yurtlarını kurtarabilecekler midir?

Kızgın Kuşlar Filmi 2 (2019) (Angry Birds Filmi 2) | tt6095472 Filmi Imdb'den 25,000 kişi tarafından oylandı ve 6,4 puan aldı. Bu film için editör puanı %69 olarak belirlendi. İyi Seyirler!

Teknik Detaylar

Kod :
General
Unique ID                                : 24647402568386217289733278211889930905 (0x128AEAC4D2B6C75FB49ECD3DBCBFA299)
Complete name                            : /home/BroserBros/Desktop/3/Kızgın.Kuşlar.Filmi.2.2019.2160p.4K.BluRay.x265.10Bit.HDR.HEVC.TR.ENG.Filmbol.mkv
Format                                   : Matroska
Format version                           : Version 4
File size                                : 7.37 GiB
Duration                                 : 1 h 36 min
Overall bit rate                         : 10.9 Mb/s
Movie name                               : Kızgın Kuşlar Filmi 2 - Angry Birds Movie 2 - 2019 | Filmbol.org
Encoded date                             : UTC 2021-06-09 13:38:01
Writing application                      : mkvmerge v53.0.0 ('Fool's Gold') 64-bit
Writing library                          : libebml v1.4.1 + libmatroska v1.6.2

Video
ID                                       : 1
Format                                   : HEVC
Format/Info                              : High Efficiency Video Coding
Format profile                           : Main [email protected]@High
HDR format                               : SMPTE ST 2086, HDR10 compatible
Codec ID                                 : V_MPEGH/ISO/HEVC
Duration                                 : 1 h 36 min
Bit rate                                 : 10.0 Mb/s
Width                                    : 3 840 pixels
Height                                   : 2 072 pixels
Display aspect ratio                     : 1.85:1
Frame rate mode                          : Constant
Frame rate                               : 23.976 (24000/1001) FPS
Color space                              : YUV
Chroma subsampling                       : 4:2:0
Bit depth                                : 10 bits
Bits/(Pixel*Frame)                       : 0.052
Stream size                              : 6.76 GiB (92%)
Title                                    : 4K - Filmbol.org
Language                                 : English
Default                                  : Yes
Forced                                   : No
Color range                              : Limited
Color primaries                          : BT.2020
Transfer characteristics                 : PQ
Matrix coefficients                      : BT.2020 non-constant
Mastering display color primaries        : Display P3
Mastering display luminance              : min: 0.0001 cd/m2, max: 1000 cd/m2
Maximum Content Light Level              : 4551 cd/m2
Maximum Frame-Average Light Level        : 650 cd/m2

Audio #1
ID                                       : 2
Format                                   : AC-3
Format/Info                              : Audio Coding 3
Commercial name                          : Dolby Digital
Codec ID                                 : A_AC3
Duration                                 : 1 h 36 min
Bit rate mode                            : Constant
Bit rate                                 : 640 kb/s
Channel(s)                               : 6 channels
Channel layout                           : L R C LFE Ls Rs
Sampling rate                            : 48.0 kHz
Frame rate                               : 31.250 FPS (1536 SPF)
Compression mode                         : Lossy
Stream size                              : 443 MiB (6%)
Title                                    : Türkçe - Filmbol.org
Language                                 : Turkish
Service kind                             : Complete Main
Default                                  : Yes
Forced                                   : No

Audio #2
ID                                       : 3
Format                                   : E-AC-3
Format/Info                              : Enhanced AC-3
Commercial name                          : Dolby Digital Plus
Codec ID                                 : A_EAC3
Duration                                 : 1 h 36 min
Bit rate mode                            : Constant
Bit rate                                 : 256 kb/s
Channel(s)                               : 6 channels
Channel layout                           : L R C LFE Ls Rs
Sampling rate                            : 48.0 kHz
Frame rate                               : 31.250 FPS (1536 SPF)
Compression mode                         : Lossy
Stream size                              : 177 MiB (2%)
Title                                    : Orijinal Dil - Filmbol.org
Language                                 : English
Service kind                             : Complete Main
Default                                  : No
Forced                                   : No

Text #1
ID                                       : 4
Format                                   : UTF-8
Codec ID                                 : S_TEXT/UTF8
Codec ID/Info                            : UTF-8 Plain Text
Duration                                 : 1 h 28 min
Bit rate                                 : 73 b/s
Count of elements                        : 1356
Stream size                              : 47.3 KiB (0%)
Title                                    : Türkçe - Filmbol.org
Language                                 : Turkish
Default                                  : No
Forced                                   : No

Text #2
ID                                       : 5
Format                                   : UTF-8
Codec ID                                 : S_TEXT/UTF8
Codec ID/Info                            : UTF-8 Plain Text
Duration                                 : 1 h 34 min
Bit rate                                 : 80 b/s
Count of elements                        : 1759
Stream size                              : 55.5 KiB (0%)
Title                                    : Orijinal Dil - Filmbol.org
Language                                 : English
Default                                  : No
Forced                                   : No

Film Detayları


 Kızgın Kuşlar Filmi 2

 Kızgın Kuşlar Filmi 2

 Kızgın Kuşlar Filmi 2


Film Fragmanı


Film Detayları

Mega linki şuan da gizli. Kullanıma açmak için konuya yorum yapın ve ardından sayfayı yenileyin.

Mega


Bunun için üzgünüz ancak, bu linke sadece premium üyeler erişebilir.

Filmbol Cloud







Hızlı Menü: