Filmbol Forum Film İndir FHD - FULL HD v Kızgın Kuşlar Filmi 2 (Angry Birds Filmi 2) - 2019 - TR+ORG - FHD - x264 | tt6095472
Bildirimi Kapat
Merhaba , site giderlerini bir nebze olsun karşılamak adına link kısaltma servisleri kullanmaya başladık. İndirme linkleri sizi ouo.io adresinde yönlendirecek, 3 saniye geçtikten sonra Get Link butonuna tıklayarak linke ulaşacaksınız. Premium üyeler bu durumdan etkilenmeyecektir.


Premium Üyelik Al

Kızgın Kuşlar Filmi 2 (Angry Birds Filmi 2) - 2019 - TR+ORG - FHD - x264 | tt6095472
BroserBros
Kızgın Kuşlar Filmi 2 (Angry Birds Filmi 2) - 2019 - TR+ORG - FHD - x264 | tt6095472
1
30
  • Derecelendirme: 0/5 - 0 oy
  • 1
  • 2
  • 3
  • 4
  • 5
Konuyu Okuyanlar:1 Ziyaretçi
Şuan Online!
Filmin Yayınlanma Tarihi: 2019 
Şuan Online!
BroserBros Kurucu Admin
*******
Admin


 Kızgın Kuşlar Filmi 2



Sevilen bilgisayar oyunundan beyazperdeye uyarlanan Angry Birds filminin devam halkası olan yapımda, uçamayan kuşlar ve yeşil domuzların yaşadığı maceralar konu ediliyor. Kuş ve Domuz adaları büyük bir tehlike ile karşı karşıyadır. Yaşadıkları yeri korumak için harekete geçen Red, Chuck, Bomba ve Yüce Kartal bir süper takım oluşturmaya karar verir. Chuck’ın kız kardeşi Silver’ı da takıma alan ekip, istikrarsız bir ateşkes başlatmak ve yurtlarını kurtarmak için domuz Leonard, asistanı Courtney ve teknik uzman domuz Garry ile de iş birliği yapar. Güçlerini birleştiren ekip, tehlike altında bulunan yurtlarını kurtarabilecekler midir?

Kızgın Kuşlar Filmi 2 (2019) (Angry Birds Filmi 2) | tt6095472 Filmi Imdb'den 25,000 kişi tarafından oylandı ve 6,4 puan aldı. Bu film için editör puanı %69 olarak belirlendi. İyi Seyirler!

Teknik Detaylar

Kod :
General
Unique ID                                : 295219772940616334675681645734411969109 (0xDE1942952320C3942B76C3E02FB52255)
Complete name                            : /home/BroserBros/Desktop/3/Kızgın.Kuşlar.Filmi.2.2019.FHD.BluRay.x264.TR.ENG.Filmbol.mkv
Format                                  : Matroska
Format version                          : Version 4
File size                                : 4.97 GiB
Duration                                : 1 h 36 min
Overall bit rate                        : 7 352 kb/s
Movie name                              : Kızgın Kuşlar Filmi 2 - Angry Birds Movie 2 - 2019 | Filmbol.org
Encoded date                            : UTC 2021-06-09 13:22:41
Writing application                      : mkvmerge v53.0.0 ('Fool's Gold') 64-bit
Writing library                          : libebml v1.4.1 + libmatroska v1.6.2

Video
ID                                      : 1
Format                                  : AVC
Format/Info                              : Advanced Video Codec
Format profile                          : [email protected]
Format settings                          : CABAC / 4 Ref Frames
Format settings, CABAC                  : Yes
Format settings, Reference frames        : 4 frames
Codec ID                                : V_MPEG4/ISO/AVC
Duration                                : 1 h 36 min
Bit rate                                : 6 571 kb/s
Width                                    : 1 920 pixels
Height                                  : 1 040 pixels
Display aspect ratio                    : 1.85:1
Frame rate mode                          : Constant
Frame rate                              : 23.976 (24000/1001) FPS
Color space                              : YUV
Chroma subsampling                      : 4:2:0
Bit depth                                : 8 bits
Scan type                                : Progressive
Bits/(Pixel*Frame)                      : 0.137
Stream size                              : 4.44 GiB (89%)
Title                                    : FHD - Filmbol.org
Writing library                          : x264 core 158 r2984 3759fcb
Encoding settings                        : cabac=1 / ref=4 / deblock=1:-3:-3 / analyse=0x3:0x113 / me=umh / subme=8 / psy=1 / psy_rd=1.00:0.00 / mixed_ref=1 / me_range=16 / chroma_me=1 / trellis=1 / 8x8dct=1 / cqm=0 / deadzone=21,11 / fast_pskip=1 / chroma_qp_offset=-2 / threads=24 / lookahead_threads=4 / sliced_threads=0 / nr=0 / decimate=1 / interlaced=0 / bluray_compat=0 / constrained_intra=0 / bframes=3 / b_pyramid=2 / b_adapt=1 / b_bias=0 / direct=3 / weightb=1 / open_gop=0 / weightp=2 / keyint=250 / keyint_min=23 / scenecut=40 / intra_refresh=0 / rc_lookahead=50 / rc=2pass / mbtree=1 / bitrate=6571 / ratetol=1.0 / qcomp=0.60 / qpmin=0 / qpmax=69 / qpstep=4 / cplxblur=20.0 / qblur=0.5 / ip_ratio=1.40 / aq=1:1.00
Language                                : English
Default                                  : Yes
Forced                                  : No

Audio #1
ID                                      : 2
Format                                  : AC-3
Format/Info                              : Audio Coding 3
Commercial name                          : Dolby Digital
Codec ID                                : A_AC3
Duration                                : 1 h 36 min
Bit rate mode                            : Constant
Bit rate                                : 640 kb/s
Channel(s)                              : 6 channels
Channel layout                          : L R C LFE Ls Rs
Sampling rate                            : 48.0 kHz
Frame rate                              : 31.250 FPS (1536 SPF)
Compression mode                        : Lossy
Stream size                              : 443 MiB (9%)
Title                                    : Türkçe - Filmbol.org
Language                                : Turkish
Service kind                            : Complete Main
Default                                  : Yes
Forced                                  : No

Audio #2
ID                                      : 3
Format                                  : AAC LC
Format/Info                              : Advanced Audio Codec Low Complexity
Codec ID                                : A_AAC-2
Duration                                : 1 h 36 min
Bit rate                                : 138 kb/s
Channel(s)                              : 2 channels
Channel layout                          : L R
Sampling rate                            : 48.0 kHz
Frame rate                              : 46.875 FPS (1024 SPF)
Compression mode                        : Lossy
Stream size                              : 95.5 MiB (2%)
Title                                    : Orijinal Dil - Filmbol.org
Language                                : English
Default                                  : No
Forced                                  : No

Text
ID                                      : 4
Format                                  : UTF-8
Codec ID                                : S_TEXT/UTF8
Codec ID/Info                            : UTF-8 Plain Text
Duration                                : 1 h 28 min
Bit rate                                : 73 b/s
Count of elements                        : 1356
Stream size                              : 47.3 KiB (0%)
Title                                    : Türkçe - Filmbol.org
Language                                : Turkish
Default                                  : No
Forced                                  : No

Film Detayları


 Kızgın Kuşlar Filmi 2

 Kızgın Kuşlar Filmi 2

 Kızgın Kuşlar Filmi 2


Film Fragmanı


Film Detayları



Zip Şifresi: filmbol.org Aşağıdaki butona tıklayarak kopyalabilirsiniz.

Mega linkiniz:








Bunun için üzgünüz ancak, bu linke sadece premium üyeler erişebilir.

Filmbol Cloud





WWW
Şuan Online!
Şuan Online!
linkinpark7091 Yeni Üye
*
Üye
  • Konular0
  • Mesajlar14
  • Rep puanı 0
paylaşım için teşşekürler


Hızlı Menü: