Filmbol Forum Film İndir 720P v Sahtekâr (Changeling) - 2008 - TR+ORG - 720P | tt0824747

Premium Üyelik Al

Bildirimi Kapat
Mega linklerinin şikayet edilmemesi için global erişime kapatıp sadece yorum yapanlara açıyoruz. Bu linkleri gizleme işlemini mecburen yapıyoruz ve yorum yapmanızın siteye değil size faydası vardır. Teşekkürler yazmayı çok görüp, Random/Spam/Anlamsız mesajlar atarak forumu kirletip Mega linklerini açmaya çalışan kullanıcılara süresiz ban atacağız.


Sahtekâr (Changeling) - 2008 - TR+ORG - 720P | tt0824747
TheSteeL
Sahtekâr (Changeling) - 2008 - TR+ORG - 720P | tt0824747
1
24
  • Derecelendirme: 0/5 - 0 oy
  • 1
  • 2
  • 3
  • 4
  • 5
Konuyu Okuyanlar:1 Ziyaretçi
Şuan Online!
Filmin Yayınlanma Tarihi: 2008 
WWW
Şuan Online!
TheSteeL Süper Moderatör
*****
Süper Moderatör



 Sahtekâr



Sıradan ve hatta fakir bir mahallede, iyi bir işi olan Christine Collins büyük bir korku ile yaşamaktadır. Bu korkunun ana sebebi tek yaşamasıdır ve bu korkusu oğludur. Oğlunun kaybolmasından çok korkan Christine, bir gün bunun ile yüzleşir ve oğlu kaybolur. Bunun üzerine hemen polise haber veren Christine, üzüntüyle yaşamak zorunda kalır çünkü polisten aylarca ses gelmez. Tam umutları kesmişken, bir polis memuru Christine'nin oğlunu bulduğunu iddia eder. Çok küçük yaşlarda olan çocuğu büyük bir değişim geçirmiş olacağından onu tanımakta imkânsızdır. Fakat Christine yine de onu oğlu olarak kabul eder ancak bu kuşkusunun üzerine gitmekten de geri kalmaz...

Sahtekâr (2008) (Changeling) | tt0824747 Filmi Imdb'den 243000 kişi tarafından oylandı ve 7,7 puan aldı. Bu film için editör puanı %86 olarak belirlendi. İyi Seyirler!

Teknik Detaylar

Kod :
General
Unique ID                                : 49336146917094868702209463485352677127 (0x251DCBD84630B38D1AA995AE9E948F07)
Complete name                            : /home/TheSteel/Desktop/1/Sahtekar.2008.720P.Bluray.x264.TR.ENG.Filmbol.mkv
Format                                   : Matroska
Format version                           : Version 4
File size                                : 1.13 GiB
Duration                                 : 2 h 21 min
Overall bit rate                         : 1 145 kb/s
Encoded date                             : UTC 2021-05-31 22:36:38
Writing application                      : mkvmerge v31.0.0 ('Dolores In A Shoestand') 64-bit
Writing library                          : libebml v1.3.6 + libmatroska v1.4.9

Video
ID                                       : 1
Format                                   : AVC
Format/Info                              : Advanced Video Codec
Format profile                           : [email protected]
Format settings                          : CABAC / 3 Ref Frames
Format settings, CABAC                   : Yes
Format settings, Reference frames        : 3 frames
Codec ID                                 : V_MPEG4/ISO/AVC
Duration                                 : 2 h 21 min
Bit rate                                 : 671 kb/s
Width                                    : 1 280 pixels
Height                                   : 536 pixels
Display aspect ratio                     : 2.40:1
Frame rate mode                          : Constant
Frame rate                               : 23.976 (24000/1001) FPS
Color space                              : YUV
Chroma subsampling                       : 4:2:0
Bit depth                                : 8 bits
Scan type                                : Progressive
Bits/(Pixel*Frame)                       : 0.041
Stream size                              : 680 MiB (59%)
Title                                    : 720P - Filmbol.org
Writing library                          : x264 core 80 r1376M 3feaec2
Encoding settings                        : cabac=1 / ref=3 / deblock=1:-1:-1 / analyse=0x3:0x133 / me=hex / subme=5 / psy=1 / psy_rd=0.0:0.0 / mixed_ref=1 / me_range=16 / chroma_me=1 / trellis=1 / 8x8dct=1 / cqm=0 / deadzone=21,11 / fast_pskip=1 / chroma_qp_offset=0 / threads=3 / sliced_threads=0 / nr=0 / decimate=1 / mbaff=0 / constrained_intra=0 / bframes=16 / b_pyramid=0 / b_adapt=1 / b_bias=0 / direct=3 / wpredb=1 / wpredp=2 / keyint=250 / keyint_min=25 / scenecut=40 / rc_lookahead=40 / rc=2pass / mbtree=1 / bitrate=671 / ratetol=1.0 / qcomp=0.60 / qpmin=10 / qpmax=51 / qpstep=4 / cplxblur=20.0 / qblur=0.5 / ip_ratio=1.40 / aq=1:1.00
Default                                  : Yes
Forced                                   : No

Audio #1
ID                                       : 2
Format                                   : AC-3
Format/Info                              : Audio Coding 3
Commercial name                          : Dolby Digital
Codec ID                                 : A_AC3
Duration                                 : 2 h 21 min
Bit rate mode                            : Constant
Bit rate                                 : 448 kb/s
Channel(s)                               : 6 channels
Channel layout                           : L R C LFE Ls Rs
Sampling rate                            : 48.0 kHz
Frame rate                               : 31.250 FPS (1536 SPF)
Compression mode                         : Lossy
Delay relative to video                  : -100 ms
Stream size                              : 455 MiB (39%)
Title                                    : Türkçe - Filmbol.org
Language                                 : Turkish
Service kind                             : Complete Main
Default                                  : Yes
Forced                                   : No

Audio #2
ID                                       : 3
Format                                   : AAC LC SBR
Format/Info                              : Advanced Audio Codec Low Complexity with Spectral Band Replication
Commercial name                          : HE-AAC
Format settings                          : Explicit
Codec ID                                 : A_AAC-2
Duration                                 : 2 h 21 min
Bit rate                                 : 25.0 kb/s
Channel(s)                               : 2 channels
Channel layout                           : L R
Sampling rate                            : 22.05 kHz
Frame rate                               : 10.767 FPS (2048 SPF)
Compression mode                         : Lossy
Delay relative to video                  : -100 ms
Stream size                              : 25.4 MiB (2%)
Title                                    : Orjinal Dil - Filmbol.org
Language                                 : English
Default                                  : No
Forced                                   : No

Text
ID                                       : 4
Format                                   : UTF-8
Codec ID                                 : S_TEXT/UTF8
Codec ID/Info                            : UTF-8 Plain Text
Duration                                 : 2 h 20 min
Bit rate                                 : 69 b/s
Count of elements                        : 1975
Stream size                              : 71.7 KiB (0%)
Title                                    : Türkçe - Filmbol.org
Language                                 : Turkish
Default                                  : No
Forced                                   : No

Film Detayları


 Sahtekâr

 Sahtekâr

 Sahtekâr


Film Fragmanı


Film Detayları

Uptobox ile indir

1Fichier ile indir

1Fichier'den İndiremiyor musun? Tıklayın!


Mega linki şuan da gizli. Kullanıma açmak için konuya yorum yapın ve ardından sayfayı yenileyin.

Mega


Bunun için üzgünüz ancak, bu linke sadece premium üyeler erişebilir.

Filmbol Cloud





Şuan Offine!
Şuan Offine!
erdalmeryem Uzman Üye
**
Uzman Üye

  • Konular0
  • Mesajlar7
  • Rep puanı 0
güzel


Hızlı Menü: