Filmbol Forum Film İndir BRRip XviD v Sahtekâr (Changeling) - 2008 - TR - BRRip XviD | tt0824747
Bildirimi Kapat
Merhaba , site giderlerini bir nebze olsun karşılamak adına link kısaltma servisleri kullanmaya başladık. İndirme linkleri sizi ouo.io adresinde yönlendirecek, 3 saniye geçtikten sonra Get Link butonuna tıklayarak linke ulaşacaksınız. Premium üyeler bu durumdan etkilenmeyecektir.


Premium Üyelik Al

Sahtekâr (Changeling) - 2008 - TR - BRRip XviD | tt0824747
TheSteeL
Sahtekâr (Changeling) - 2008 - TR - BRRip XviD | tt0824747
2
61
  • Derecelendirme: 0/5 - 0 oy
  • 1
  • 2
  • 3
  • 4
  • 5
Konuyu Okuyanlar:1 Ziyaretçi
Şuan Online!
Filmin Yayınlanma Tarihi: 2008 
Şuan Online!
TheSteeL Chief Executive Officer
******
CEO


 Sahtekâr



Sıradan ve hatta fakir bir mahallede, iyi bir işi olan Christine Collins büyük bir korku ile yaşamaktadır. Bu korkunun ana sebebi tek yaşamasıdır ve bu korkusu oğludur. Oğlunun kaybolmasından çok korkan Christine, bir gün bunun ile yüzleşir ve oğlu kaybolur. Bunun üzerine hemen polise haber veren Christine, üzüntüyle yaşamak zorunda kalır çünkü polisten aylarca ses gelmez. Tam umutları kesmişken, bir polis memuru Christine'nin oğlunu bulduğunu iddia eder. Çok küçük yaşlarda olan çocuğu büyük bir değişim geçirmiş olacağından onu tanımakta imkânsızdır. Fakat Christine yine de onu oğlu olarak kabul eder ancak bu kuşkusunun üzerine gitmekten de geri kalmaz...

Sahtekâr (2008) (Changeling) | tt0824747 Filmi Imdb'den 243000 kişi tarafından oylandı ve 7,7 puan aldı. Bu film için editör puanı %86 olarak belirlendi. İyi Seyirler!

Teknik Detaylar

Kod :
General
Unique ID                                : 275136987741403297860544095654804010501 (0xCEFD74D359F8D8A4D042AE37DAFD3605)
Complete name                            : /home/TheSteel/Desktop/1/Sahtekar.2008.BRRip.Xvid.TR.Filmbol.avi
Format                                   : Matroska
Format version                           : Version 4
File size                                : 1.36 GiB
Duration                                 : 2 h 21 min
Overall bit rate                         : 1 376 kb/s
Encoded date                             : UTC 2021-05-31 22:37:20
Writing application                      : mkvmerge v31.0.0 ('Dolores In A Shoestand') 64-bit
Writing library                          : libebml v1.3.6 + libmatroska v1.4.9
FileExtension_Invalid                    : mkv mk3d mka mks

Video
ID                                       : 1
Format                                   : MPEG-4 Visual
Format profile                           : Advanced [email protected]
Format settings                          : BVOP2 / Custom Matrix
Format settings, BVOP                    : 2
Format settings, QPel                    : No
Format settings, GMC                     : No warppoints
Format settings, Matrix                  : Custom
Codec ID                                 : V_MS/VFW/FOURCC / XVID
Codec ID/Hint                            : XviD
Duration                                 : 2 h 21 min
Bit rate                                 : 1 246 kb/s
Width                                    : 640 pixels
Height                                   : 272 pixels
Display aspect ratio                     : 2.35:1
Frame rate mode                          : Constant
Frame rate                               : 23.976 (24000/1001) FPS
Color space                              : YUV
Chroma subsampling                       : 4:2:0
Bit depth                                : 8 bits
Scan type                                : Progressive
Compression mode                         : Lossy
Bits/(Pixel*Frame)                       : 0.298
Stream size                              : 1.23 GiB (91%)
Title                                    : Filmbol.org
Writing library                          : XviD 1.2.1 (UTC 2008-12-04)
Default                                  : Yes
Forced                                   : No

Audio
ID                                       : 2
Format                                   : MPEG Audio
Format version                           : Version 1
Format profile                           : Layer 3
Format settings                          : Joint stereo / MS Stereo
Codec ID                                 : A_MPEG/L3
Codec ID/Hint                            : MP3
Duration                                 : 2 h 21 min
Bit rate mode                            : Constant
Bit rate                                 : 128 kb/s
Channel(s)                               : 2 channels
Sampling rate                            : 48.0 kHz
Frame rate                               : 41.667 FPS (1152 SPF)
Compression mode                         : Lossy
Stream size                              : 130 MiB (9%)
Title                                    : Türkçe - Filmbol.org
Writing library                          : LAME3.99r
Encoding settings                        : -m j -V 4 -q 2 -lowpass 17 -b 128
Default                                  : Yes
Forced                                   : No

Film Detayları


 Sahtekâr

 Sahtekâr

 Sahtekâr


Film Fragmanı


Film Detayları



Zip Şifresi: filmbol.org Aşağıdaki butona tıklayarak kopyalabilirsiniz.

Mega linkiniz:



Uptobox ile indir

1Fichier ile indir

1Fichier'den İndiremiyor musun? Tıklayın!








Bunun için üzgünüz ancak, bu linke sadece premium üyeler erişebilir.

Filmbol Cloud





WWW
Şuan Offine!
Şuan Offine!
Furkan61 Cezalı Üye
  • Konular0
  • Mesajlar329
Teşekkürler
Şuan Online!
Şuan Online!
TheSteeL Chief Executive Officer
******
CEO
(14-06-2021, Saat: 11:49)Furkan61 Adlı Kullanıcıdan Alıntı: Teşekkürler
İyi Seyirler


Hızlı Menü: