Filmbol Forum Film İndir FHD - FULL HD v Arşiv (Archive) - 2020 - TR+ORG - FHD - x264 | tt6882604
Bildirimi Kapat
Merhaba , site giderlerini bir nebze olsun karşılamak adına link kısaltma servisleri kullanmaya başladık. İndirme linkleri sizi ouo.io adresinde yönlendirecek, 3 saniye geçtikten sonra Get Link butonuna tıklayarak linke ulaşacaksınız. Premium üyeler bu durumdan etkilenmeyecektir.


Premium Üyelik Al

Arşiv (Archive) - 2020 - TR+ORG - FHD - x264 | tt6882604
TheSteeL
Arşiv (Archive) - 2020 - TR+ORG - FHD - x264 | tt6882604
3
66
  • Derecelendirme: 0/5 - 0 oy
  • 1
  • 2
  • 3
  • 4
  • 5
Konuyu Okuyanlar:1 Ziyaretçi
Şuan Online!
Filmin Yayınlanma Tarihi: 2020 
Şuan Online!
TheSteeL Chief Executive Officer
******
CEO


 Arşiv



George Almore eşinin kaybı üzerine teknolojiyi konuşturmaya karar verir. Onun anılarını tekrar canlandırarak yeni bir vücut ve zekâ sistemi tasarlayan George işi tüm dünyadan gizlemiştir ve sonuna yaklaştığında işler beklediği gibi gidiyor görünse de arka planda birçok sorun yaşanmaktadır...

Arşiv (2020) (Archive) | tt6882604 Filmi Imdb'den 15000 kişi tarafından oylandı ve 6,4 puan aldı. Bu film için editör puanı %70 olarak belirlendi. İyi Seyirler!

Teknik Detaylar

Kod :
General
Unique ID                                : 178542405968065421060413841225640826329 (0x8652043FE07BB2F761EA856FA94BD5D9)
Complete name                            : /home/TheSteel/Desktop/4/Arşiv.2020.FHD.Bluray.x264.TR.ENG.Filmbol.mkv
Format                                   : Matroska
Format version                           : Version 4
File size                                : 10.4 GiB
Duration                                 : 1 h 49 min
Overall bit rate                         : 13.7 Mb/s
Movie name                               : Archive - Arşiv - 2020 | Filmbol.org
Encoded date                             : UTC 2021-06-04 09:00:58
Writing application                      : mkvmerge v31.0.0 ('Dolores In A Shoestand') 64-bit
Writing library                          : libebml v1.3.6 + libmatroska v1.4.9

Video
ID                                       : 1
Format                                   : AVC
Format/Info                              : Advanced Video Codec
Format profile                           : [email protected]
Format settings                          : CABAC / 5 Ref Frames
Format settings, CABAC                   : Yes
Format settings, Reference frames        : 5 frames
Codec ID                                 : V_MPEG4/ISO/AVC
Duration                                 : 1 h 49 min
Bit rate                                 : 12.9 Mb/s
Width                                    : 1 920 pixels
Height                                   : 798 pixels
Display aspect ratio                     : 2.40:1
Frame rate mode                          : Constant
Frame rate                               : 24.000 FPS
Color space                              : YUV
Chroma subsampling                       : 4:2:0
Bit depth                                : 8 bits
Scan type                                : Progressive
Bits/(Pixel*Frame)                       : 0.350
Stream size                              : 9.80 GiB (94%)
Title                                    : Archive - Arşiv - 2020 | Filmbol.org
Writing library                          : x264 core 157 r2969 d4099dd
Encoding settings                        : cabac=1 / ref=5 / deblock=1:-2:-2 / analyse=0x3:0x113 / me=umh / subme=10 / psy=1 / psy_rd=1.00:0.00 / mixed_ref=1 / me_range=32 / chroma_me=1 / trellis=2 / 8x8dct=1 / cqm=0 / deadzone=21,11 / fast_pskip=0 / chroma_qp_offset=-2 / threads=24 / lookahead_threads=4 / sliced_threads=0 / nr=0 / decimate=0 / interlaced=0 / bluray_compat=0 / constrained_intra=0 / bframes=9 / b_pyramid=2 / b_adapt=2 / b_bias=0 / direct=3 / weightb=1 / open_gop=0 / weightp=2 / keyint=230 / keyint_min=23 / scenecut=40 / intra_refresh=0 / rc_lookahead=40 / rc=2pass / mbtree=0 / bitrate=12876 / ratetol=1.0 / qcomp=0.60 / qpmin=0 / qpmax=51 / qpstep=4 / cplxblur=20.0 / qblur=0.5 / vbv_maxrate=50000 / vbv_bufsize=62000 / nal_hrd=none / filler=0 / ip_ratio=1.40 / pb_ratio=1.30 / aq=3:0.80
Language                                 : English
Default                                  : Yes
Forced                                   : No

Audio #1
ID                                       : 2
Format                                   : AC-3
Format/Info                              : Audio Coding 3
Commercial name                          : Dolby Digital
Codec ID                                 : A_AC3
Duration                                 : 1 h 49 min
Bit rate mode                            : Constant
Bit rate                                 : 192 kb/s
Channel(s)                               : 2 channels
Channel layout                           : L R
Sampling rate                            : 48.0 kHz
Frame rate                               : 31.250 FPS (1536 SPF)
Compression mode                         : Lossy
Stream size                              : 150 MiB (1%)
Title                                    : Archive - Arşiv - 2020 | Filmbol.org
Language                                 : Turkish
Service kind                             : Complete Main
Default                                  : Yes
Forced                                   : No

Audio #2
ID                                       : 3
Format                                   : AC-3
Format/Info                              : Audio Coding 3
Commercial name                          : Dolby Digital
Codec ID                                 : A_AC3
Duration                                 : 1 h 49 min
Bit rate mode                            : Constant
Bit rate                                 : 640 kb/s
Channel(s)                               : 6 channels
Channel layout                           : L R C LFE Ls Rs
Sampling rate                            : 48.0 kHz
Frame rate                               : 31.250 FPS (1536 SPF)
Compression mode                         : Lossy
Stream size                              : 499 MiB (5%)
Title                                    : Archive - Arşiv - 2020 | Filmbol.org
Language                                 : English
Service kind                             : Complete Main
Default                                  : No
Forced                                   : No

Text
ID                                       : 4
Format                                   : UTF-8
Codec ID                                 : S_TEXT/UTF8
Codec ID/Info                            : UTF-8 Plain Text
Duration                                 : 1 h 42 min
Bit rate                                 : 39 b/s
Count of elements                        : 1006
Stream size                              : 29.3 KiB (0%)
Title                                    : Archive - Arşiv - 2020 | Filmbol.org
Language                                 : Turkish
Default                                  : No
Forced                                   : No

Film Detayları


 Arşiv

 Arşiv

 Arşiv


Film Fragmanı


Film Detayları



Zip Şifresi: filmbol.org Aşağıdaki butona tıklayarak kopyalabilirsiniz.

Mega linkiniz:








Bunun için üzgünüz ancak, bu linke sadece premium üyeler erişebilir.

Filmbol Cloud





WWW
Şuan Online!
Şuan Online!
Yusuf 00 Yeni Üye
*
Üye
  • Konular0
  • Mesajlar33
  • Rep puanı 0
Teşekkürler
Şuan Online!
Şuan Online!
TheSteeL Chief Executive Officer
******
CEO
(01-08-2021, Saat: 18:43)Yusuf 00 Adlı Kullanıcıdan Alıntı: Teşekkürler
İyi Seyirler
Şuan Offine!
Şuan Offine!
extremeways Yeni Üye
*
Üye
  • Konular0
  • Mesajlar22
  • Rep puanı 0
Teşekkürler


Hızlı Menü: