Filmbol Forum Film İndir BRRip XviD v Arşiv (Archive) - 2020 - TR - BRRip XviD | tt6882604
Bildirimi Kapat
Merhaba , site giderlerini bir nebze olsun karşılamak adına link kısaltma servisleri kullanmaya başladık. İndirme linkleri sizi ouo.io adresinde yönlendirecek, 3 saniye geçtikten sonra Get Link butonuna tıklayarak linke ulaşacaksınız. Premium üyeler bu durumdan etkilenmeyecektir.


Premium Üyelik Al

Arşiv (Archive) - 2020 - TR - BRRip XviD | tt6882604
TheSteeL
Arşiv (Archive) - 2020 - TR - BRRip XviD | tt6882604
0
33
  • Derecelendirme: 0/5 - 0 oy
  • 1
  • 2
  • 3
  • 4
  • 5
Konuyu Okuyanlar:2 Ziyaretçi
Şuan Online!
Filmin Yayınlanma Tarihi: 2020 
Şuan Online!
TheSteeL Chief Executive Officer
******
CEO


 Arşiv



George Almore eşinin kaybı üzerine teknolojiyi konuşturmaya karar verir. Onun anılarını tekrar canlandırarak yeni bir vücut ve zekâ sistemi tasarlayan George işi tüm dünyadan gizlemiştir ve sonuna yaklaştığında işler beklediği gibi gidiyor görünse de arka planda birçok sorun yaşanmaktadır...

Arşiv (2020) (Archive) | tt6882604 Filmi Imdb'den 15000 kişi tarafından oylandı ve 6,4 puan aldı. Bu film için editör puanı %70 olarak belirlendi. İyi Seyirler!

Teknik Detaylar

Kod :
General
Unique ID                                : 240328464525599879815263791821678927274 (0xB4CD942137764A4A3393F6EC6F8F5DAA)
Complete name                            : /home/TheSteel/Desktop/4/Arşiv.2020.HDRip.XViD.TR.Filmbol.avi
Format                                   : Matroska
Format version                           : Version 4
File size                                : 1.26 GiB
Duration                                 : 1 h 49 min
Overall bit rate                         : 1 655 kb/s
Movie name                               : Archive - Arşiv - 2020 | Filmbol.org
Encoded date                             : UTC 2021-06-04 09:09:17
Writing application                      : mkvmerge v31.0.0 ('Dolores In A Shoestand') 64-bit
Writing library                          : libebml v1.3.6 + libmatroska v1.4.9
FileExtension_Invalid                    : mkv mk3d mka mks

Video
ID                                       : 1
Format                                   : MPEG-4 Visual
Format profile                           : Advanced [email protected]
Format settings                          : BVOP1 / Custom Matrix
Format settings, BVOP                    : 1
Format settings, QPel                    : No
Format settings, GMC                     : No warppoints
Format settings, Matrix                  : Custom
Codec ID                                 : V_MS/VFW/FOURCC / XVID
Codec ID/Hint                            : XviD
Duration                                 : 1 h 49 min
Bit rate                                 : 1 525 kb/s
Width                                    : 720 pixels
Height                                   : 304 pixels
Display aspect ratio                     : 2.35:1
Frame rate mode                          : Constant
Frame rate                               : 24.000 FPS
Color space                              : YUV
Chroma subsampling                       : 4:2:0
Bit depth                                : 8 bits
Scan type                                : Progressive
Compression mode                         : Lossy
Bits/(Pixel*Frame)                       : 0.290
Stream size                              : 1.16 GiB (92%)
Title                                    : Archive - Arşiv - 2020 | Filmbol.org
Writing library                          : XviD 73
Default                                  : Yes
Forced                                   : No

Audio
ID                                       : 2
Format                                   : MPEG Audio
Format version                           : Version 1
Format profile                           : Layer 3
Format settings                          : Joint stereo / MS Stereo
Codec ID                                 : A_MPEG/L3
Codec ID/Hint                            : MP3
Duration                                 : 1 h 49 min
Bit rate mode                            : Constant
Bit rate                                 : 128 kb/s
Channel(s)                               : 2 channels
Sampling rate                            : 48.0 kHz
Frame rate                               : 41.667 FPS (1152 SPF)
Compression mode                         : Lossy
Stream size                              : 99.8 MiB (8%)
Title                                    : Archive - Arşiv - 2020 | Filmbol.org
Writing library                          : LAME3.99.5
Default                                  : Yes
Forced                                   : No

Film Detayları


 Arşiv

 Arşiv

 Arşiv


Film Fragmanı


Film Detayları



Zip Şifresi: filmbol.org Aşağıdaki butona tıklayarak kopyalabilirsiniz.

Mega linkiniz:



Uptobox ile indir

1Fichier ile indir

1Fichier'den İndiremiyor musun? Tıklayın!








Bunun için üzgünüz ancak, bu linke sadece premium üyeler erişebilir.

Filmbol Cloud





WWW


Hızlı Menü: