Filmbol Forum Film İndir 720P v Gezegenimizin Kritik Eşikleri (Breaking Boundaries: The Science of Our Planet) - 2021 - TR+ORG - 720P | tt14539726

Premium Üyelik Al

Bildirimi Kapat
Mega linklerinin şikayet edilmemesi için global erişime kapatıp sadece yorum yapanlara açıyoruz. Bu linkleri gizleme işlemini mecburen yapıyoruz ve yorum yapmanızın siteye değil size faydası vardır. Teşekkürler yazmayı çok görüp, Random/Spam/Anlamsız mesajlar atarak forumu kirletip Mega linklerini açmaya çalışan kullanıcılara süresiz ban atacağız.


Gezegenimizin Kritik Eşikleri (Breaking Boundaries: The Science of Our Planet) - 2021 - TR+ORG - 720P | tt14539726
TheSteeL
Gezegenimizin Kritik Eşikleri (Breaking Boundaries: The Science of Our Planet) - 2021 - TR+ORG - 720P | tt14539726
0
17
  • Derecelendirme: 0/5 - 0 oy
  • 1
  • 2
  • 3
  • 4
  • 5
Konuyu Okuyanlar:1 Ziyaretçi
Şuan Online!
Filmin Yayınlanma Tarihi: 2021 
WWW
Şuan Online!
TheSteeL Süper Moderatör
*****
Süper Moderatör



 Gezegenimizin Kritik Eşikleri



İnsanoğlu büyük işler başarmış olsa da, zararsız bir tür olduğunu söylemek çok güç. Özellikle sanayi devriminin ardından ortaya saçılan pislikler ile dünyadaki canlı yaşamı çeşitliliği gitgide azalmakta ve bu şekilde devam ederse bu canlı çeşitliliğinin azalmasından dolayı dünya ölüm kalım eşiğine girecektir...

Gezegenimizin Kritik Eşikleri (2021) (Breaking Boundaries: The Science of Our Planet) | tt14539726 Filmi Imdb'den 200 kişi tarafından oylandı ve 8,0 puan aldı. Bu film için editör puanı %80 olarak belirlendi. İyi Seyirler!

Teknik Detaylar

Kod :
General
Unique ID                                : 247048049406479696068394261844752930065 (0xB9DBB93E34C285258CAF921B3D8D1511)
Complete name                            : /home/TheSteel/Desktop/4/Gezegenimizin.Kritik.Eşikleri.2021.720p.WEB-DL.x264.TR.ENG.Filmbol.mkv
Format                                   : Matroska
Format version                           : Version 4
File size                                : 1.83 GiB
Duration                                 : 1 h 13 min
Overall bit rate mode                    : Variable
Overall bit rate                         : 3 540 kb/s
Movie name                               : Breaking Boundaries: The Science of Our Planet - Gezegenimizin Kritik Eşikleri - 2021 | Filmbol.org
Encoded date                             : UTC 2021-06-06 13:12:14
Writing application                      : mkvmerge v31.0.0 ('Dolores In A Shoestand') 64-bit
Writing library                          : libebml v1.3.6 + libmatroska v1.4.9

Video
ID                                       : 1
Format                                   : AVC
Format/Info                              : Advanced Video Codec
Format profile                           : [email protected]
Format settings                          : CABAC / 3 Ref Frames
Format settings, CABAC                   : Yes
Format settings, Reference frames        : 3 frames
Codec ID                                 : V_MPEG4/ISO/AVC
Duration                                 : 1 h 13 min
Bit rate mode                            : Variable
Bit rate                                 : 2 770 kb/s
Nominal bit rate                         : 2 342 kb/s
Maximum bit rate                         : 6 630 kb/s
Width                                    : 1 280 pixels
Height                                   : 720 pixels
Display aspect ratio                     : 16:9
Frame rate mode                          : Constant
Frame rate                               : 23.976 (24000/1001) FPS
Color space                              : YUV
Chroma subsampling                       : 4:2:0
Bit depth                                : 8 bits
Scan type                                : Progressive
Bits/(Pixel*Frame)                       : 0.125
Stream size                              : 1.43 GiB (78%)
Title                                    : Breaking Boundaries: The Science of Our Planet - Gezegenimizin Kritik Eşikleri - 2021 | Filmbol.org
Writing library                          : x264 core 148 r2722 1b0121b
Encoding settings                        : cabac=1 / ref=3 / deblock=1:0:0 / analyse=0x1:0x111 / me=umh / subme=10 / psy=1 / psy_rd=1.00:0.00 / mixed_ref=1 / me_range=24 / chroma_me=1 / trellis=2 / 8x8dct=0 / cqm=0 / deadzone=21,11 / fast_pskip=1 / chroma_qp_offset=-2 / threads=8 / lookahead_threads=1 / sliced_threads=0 / nr=0 / decimate=1 / interlaced=0 / bluray_compat=0 / stitchable=1 / constrained_intra=0 / bframes=2 / b_pyramid=0 / b_adapt=2 / b_bias=0 / direct=3 / weightb=1 / open_gop=0 / weightp=2 / keyint=250 / keyint_min=23 / scenecut=0 / intra_refresh=0 / rc_lookahead=48 / rc=2pass / mbtree=1 / bitrate=2342 / ratetol=1.0 / qcomp=0.50 / qpmin=6 / qpmax=51 / qpstep=4 / cplxblur=20.0 / qblur=0.5 / vbv_maxrate=6630 / vbv_bufsize=8840 / nal_hrd=vbr / filler=0 / ip_ratio=1.40 / aq=1:1.00
Language                                 : English
Default                                  : Yes
Forced                                   : No

Audio #1
ID                                       : 2
Format                                   : AC-3
Format/Info                              : Audio Coding 3
Commercial name                          : Dolby Digital
Codec ID                                 : A_AC3
Duration                                 : 1 h 13 min
Bit rate mode                            : Constant
Bit rate                                 : 384 kb/s
Channel(s)                               : 6 channels
Channel layout                           : L R C LFE Ls Rs
Sampling rate                            : 48.0 kHz
Frame rate                               : 31.250 FPS (1536 SPF)
Compression mode                         : Lossy
Stream size                              : 203 MiB (11%)
Title                                    : Breaking Boundaries: The Science of Our Planet - Gezegenimizin Kritik Eşikleri - 2021 | Filmbol.org
Language                                 : Turkish
Service kind                             : Complete Main
Default                                  : Yes
Forced                                   : No

Audio #2
ID                                       : 3
Format                                   : AC-3
Format/Info                              : Audio Coding 3
Commercial name                          : Dolby Digital
Codec ID                                 : A_AC3
Duration                                 : 1 h 13 min
Bit rate mode                            : Constant
Bit rate                                 : 384 kb/s
Channel(s)                               : 6 channels
Channel layout                           : L R C LFE Ls Rs
Sampling rate                            : 48.0 kHz
Frame rate                               : 31.250 FPS (1536 SPF)
Compression mode                         : Lossy
Stream size                              : 203 MiB (11%)
Title                                    : Breaking Boundaries: The Science of Our Planet - Gezegenimizin Kritik Eşikleri - 2021 | Filmbol.org
Language                                 : English
Service kind                             : Complete Main
Default                                  : No
Forced                                   : No

Text #1
ID                                       : 4
Format                                   : UTF-8
Codec ID                                 : S_TEXT/UTF8
Codec ID/Info                            : UTF-8 Plain Text
Duration                                 : 1 h 13 min
Bit rate                                 : 1 b/s
Count of elements                        : 24
Stream size                              : 894 Bytes (0%)
Title                                    : Breaking Boundaries: The Science of Our Planet - Gezegenimizin Kritik Eşikleri - 2021 | Filmbol.org
Language                                 : Turkish
Default                                  : Yes
Forced                                   : Yes

Text #2
ID                                       : 5
Format                                   : UTF-8
Codec ID                                 : S_TEXT/UTF8
Codec ID/Info                            : UTF-8 Plain Text
Duration                                 : 1 h 13 min
Bit rate                                 : 92 b/s
Count of elements                        : 1088
Stream size                              : 49.6 KiB (0%)
Title                                    : Breaking Boundaries: The Science of Our Planet - Gezegenimizin Kritik Eşikleri - 2021 | Filmbol.org
Language                                 : Turkish
Default                                  : No
Forced                                   : No

Film Detayları


 Gezegenimizin Kritik Eşikleri

 Gezegenimizin Kritik Eşikleri

 Gezegenimizin Kritik Eşikleri


Film Fragmanı


Film Detayları

Uptobox ile indir

1Fichier ile indir

1Fichier'den İndiremiyor musun? Tıklayın!


Mega linki şuan da gizli. Kullanıma açmak için konuya yorum yapın ve ardından sayfayı yenileyin.

Mega


Bunun için üzgünüz ancak, bu linke sadece premium üyeler erişebilir.

Filmbol Cloud







Hızlı Menü: