Filmbol Forum Film İndir BRRip XviD v Gezegenimizin Kritik Eşikleri (Breaking Boundaries: The Science of Our Planet) - 2021 - TR - BRRip XviD | tt14539726

Premium Üyelik Al

Bildirimi Kapat
Mega linklerinin şikayet edilmemesi için global erişime kapatıp sadece yorum yapanlara açıyoruz. Bu linkleri gizleme işlemini mecburen yapıyoruz ve yorum yapmanızın siteye değil size faydası vardır. Teşekkürler yazmayı çok görüp, Random/Spam/Anlamsız mesajlar atarak forumu kirletip Mega linklerini açmaya çalışan kullanıcılara süresiz ban atacağız.


Gezegenimizin Kritik Eşikleri (Breaking Boundaries: The Science of Our Planet) - 2021 - TR - BRRip XviD | tt14539726
TheSteeL
Gezegenimizin Kritik Eşikleri (Breaking Boundaries: The Science of Our Planet) - 2021 - TR - BRRip XviD | tt14539726
0
10
  • Derecelendirme: 0/5 - 0 oy
  • 1
  • 2
  • 3
  • 4
  • 5
Konuyu Okuyanlar:1 Ziyaretçi
Şuan Online!
Filmin Yayınlanma Tarihi: 2021 
WWW
Şuan Online!
TheSteeL Süper Moderatör
*****
Süper Moderatör



 Gezegenimizin Kritik Eşikleri



İnsanoğlu büyük işler başarmış olsa da, zararsız bir tür olduğunu söylemek çok güç. Özellikle sanayi devriminin ardından ortaya saçılan pislikler ile dünyadaki canlı yaşamı çeşitliliği gitgide azalmakta ve bu şekilde devam ederse bu canlı çeşitliliğinin azalmasından dolayı dünya ölüm kalım eşiğine girecektir...

Gezegenimizin Kritik Eşikleri (2021) (Breaking Boundaries: The Science of Our Planet) | tt14539726 Filmi Imdb'den 200 kişi tarafından oylandı ve 8,0 puan aldı. Bu film için editör puanı %80 olarak belirlendi. İyi Seyirler!

Teknik Detaylar

Kod :
General
Unique ID                                : 166716550568487522563064178294856953990 (0x7D6C708FF2D152BA0F616D304D693086)
Complete name                            : /home/TheSteel/Desktop/4/Gezegenimizin.Kritik.Eşikleri.2021.HDRip.XviD.TR.Filmbol.avi
Format                                   : Matroska
Format version                           : Version 4
File size                                : 889 MiB
Duration                                 : 1 h 13 min
Overall bit rate                         : 1 680 kb/s
Movie name                               : Breaking Boundaries: The Science of Our Planet - Gezegenimizin Kritik Eşikleri - 2021 | Filmbol.org
Encoded date                             : UTC 2021-06-06 13:16:11
Writing application                      : mkvmerge v31.0.0 ('Dolores In A Shoestand') 64-bit
Writing library                          : libebml v1.3.6 + libmatroska v1.4.9
FileExtension_Invalid                    : mkv mk3d mka mks

Video
ID                                       : 1
Format                                   : MPEG-4 Visual
Format profile                           : [email protected]
Format settings, BVOP                    : No
Format settings, QPel                    : No
Format settings, GMC                     : No warppoints
Format settings, Matrix                  : Default (H.263)
Codec ID                                 : V_MS/VFW/FOURCC / XVID
Codec ID/Hint                            : XviD
Duration                                 : 1 h 13 min
Bit rate                                 : 1 550 kb/s
Width                                    : 720 pixels
Height                                   : 400 pixels
Display aspect ratio                     : 16:9
Frame rate mode                          : Constant
Frame rate                               : 23.976 FPS
Color space                              : YUV
Chroma subsampling                       : 4:2:0
Bit depth                                : 8 bits
Scan type                                : Progressive
Compression mode                         : Lossy
Bits/(Pixel*Frame)                       : 0.224
Stream size                              : 820 MiB (92%)
Title                                    : Breaking Boundaries: The Science of Our Planet - Gezegenimizin Kritik Eşikleri - 2021 | Filmbol.org
Writing library                          : Lavc58.35.100
Default                                  : Yes
Forced                                   : No

Audio
ID                                       : 2
Format                                   : MPEG Audio
Format version                           : Version 1
Format profile                           : Layer 3
Format settings                          : Joint stereo / MS Stereo
Codec ID                                 : A_MPEG/L3
Codec ID/Hint                            : MP3
Duration                                 : 1 h 13 min
Bit rate mode                            : Constant
Bit rate                                 : 128 kb/s
Channel(s)                               : 2 channels
Sampling rate                            : 48.0 kHz
Frame rate                               : 41.667 FPS (1152 SPF)
Compression mode                         : Lossy
Stream size                              : 67.7 MiB (8%)
Title                                    : Breaking Boundaries: The Science of Our Planet - Gezegenimizin Kritik Eşikleri - 2021 | Filmbol.org
Writing library                          : LAME3.99.5
Default                                  : Yes
Forced                                   : No

Film Detayları


 Gezegenimizin Kritik Eşikleri

 Gezegenimizin Kritik Eşikleri

 Gezegenimizin Kritik Eşikleri


Film Fragmanı


Film Detayları


Uptobox ile indir

1Fichier ile indir

1Fichier'den İndiremiyor musun? Tıklayın!


Mega linki şuan da gizli. Kullanıma açmak için konuya yorum yapın ve ardından sayfayı yenileyin.

Mega


Bunun için üzgünüz ancak, bu linke sadece premium üyeler erişebilir.

Filmbol Cloud







Hızlı Menü: